<?xml version="1.0" standalone="no"?>
<!DOCTYPE svg PUBLIC "-//W3C//DTD SVG 1.1//EN" "http://www.w3.org/Graphics/SVG/1.1/DTD/svg11.dtd" >
<svg xmlns="http://www.w3.org/2000/svg">
<metadata>Generated by IcoMoon</metadata>
<defs>
<font id="icomoon" horiz-adv-x="1024">
<font-face units-per-em="1024" ascent="960" descent="-64" />
<missing-glyph horiz-adv-x="1024" />
<glyph unicode="&#x20;" horiz-adv-x="512" d="" />
<glyph unicode="&#xe900;" glyph-name="copy" d="M341.333 661.333v-42.667h-64c-35.346 0-64-28.654-64-64v0-384c0-35.328 28.672-64 64-64h298.667c35.346 0 64 28.654 64 64v0 64h42.667v-64c0-58.88-47.787-106.667-106.667-106.667h-298.667c-58.88 0-106.667 47.787-106.667 106.667v384c0 58.88 47.787 106.667 106.667 106.667h64zM682.667 789.333h-234.667c-35.346 0-64-28.654-64-64v0-384c0-35.328 28.672-64 64-64h298.667c35.346 0 64 28.654 64 64v0 320h-106.667c-11.782 0-21.333 9.551-21.333 21.333v0 106.667zM853.333 681.472v-340.139c0-58.88-47.787-106.667-106.667-106.667h-298.667c-58.88 0-106.667 47.787-106.667 106.667v384c0 58.88 47.787 106.667 106.667 106.667h254.805c0.384 0.025 0.834 0.040 1.286 0.040 5.845 0 11.13-2.399 14.924-6.266l128.003-128.003c3.921-3.805 6.354-9.123 6.354-15.011 0-0.453-0.014-0.903-0.043-1.349l0.003 0.061zM725.333 704h55.125l-55.125 55.125v-55.125zM490.667 405.333c-11.782 0-21.333 9.551-21.333 21.333s9.551 21.333 21.333 21.333v0h85.333c11.782 0 21.333-9.551 21.333-21.333s-9.551-21.333-21.333-21.333v0h-85.333zM490.667 490.667c-11.782 0-21.333 9.551-21.333 21.333s9.551 21.333 21.333 21.333v0h213.333c11.782 0 21.333-9.551 21.333-21.333s-9.551-21.333-21.333-21.333v0h-213.333zM490.667 576c-11.782 0-21.333 9.551-21.333 21.333s9.551 21.333 21.333 21.333v0h213.333c11.782 0 21.333-9.551 21.333-21.333s-9.551-21.333-21.333-21.333v0h-213.333z" />
<glyph unicode="&#xe901;" glyph-name="fb" d="M611.84 830.037c-24.188-3.445-46.040-10.495-66.053-20.648l1.199 0.552c-52.48-25.728-90.965-69.248-109.099-123.307-9.344-27.861-9.856-32.555-10.709-94.848l-0.811-58.453h-170.368v-170.667h170.667v-298.667h170.667v298.667h170.667v170.667h-170.667v45.781c0 52.693 0.896 57.6 12.757 69.461 12.459 12.501 14.464 12.757 90.795 12.757h67.115v170.667l-72.107-0.213c-39.68-0.128-77.483-0.896-84.053-1.749z" />
<glyph unicode="&#xe902;" glyph-name="instagram" d="M270.507 872.704c-24.188-3.445-46.040-10.495-66.053-20.648l1.199 0.552c-53.419-26.197-91.819-70.187-109.824-125.781-10.069-31.104-9.643-18.389-9.643-278.827 0-260.608-0.469-247.68 9.685-278.997 11.495-34.801 30.624-64.43 55.504-88.064l0.091-0.086c24.405-23.339 50.219-38.827 81.707-49.024 31.104-10.069 18.389-9.643 278.827-9.643s247.723-0.427 278.827 9.643c31.147 10.090 57.888 26.271 80.005 47.274l-0.090-0.085c31.531 29.653 51.285 63.616 62.421 107.392l4.651 18.389v486.4l-4.651 18.389c-11.136 43.776-30.891 77.739-62.379 107.349-31.985 29.617-73.114 49.78-118.702 55.816l-1.106 0.12c-18.005 2.219-463.061 2.048-480.469-0.171zM782.507 743.851c15.744-5.376 28.16-22.955 28.16-39.851 0-22.485-20.181-42.667-42.667-42.667-10.325 0-22.229 5.077-29.909 12.757-7.731 7.619-12.521 18.205-12.521 29.91 0 11.726 4.807 22.329 12.558 29.946l0.006 0.006c7.574 7.735 18.124 12.531 29.794 12.531 5.237 0 10.248-0.966 14.865-2.728l-0.286 0.096zM537.643 659.541c35.821-4.812 67.956-17.51 95.624-36.294l-0.776 0.497c7.424-4.949 20.864-16.384 29.867-25.387 92.288-92.331 81.109-243.157-23.893-321.963-23.851-17.877-56.875-32.341-88.064-38.528-15.701-3.115-61.099-3.115-76.8 0-28.8 5.717-60.672 19.072-82.987 34.731-29.688 21.178-53.392 48.885-69.321 81.12l-0.567 1.269c-13.751 27.337-21.802 59.575-21.802 93.694 0 19.794 2.71 38.955 7.779 57.132l-0.355-1.493c5.504 20.651 21.461 53.205 34.731 70.997 39.549 52.27 101.627 85.692 171.512 85.692 8.829 0 17.533-0.533 26.082-1.57l-1.029 0.102zM490.795 574.293c-14.56-2.805-27.527-7.617-39.367-14.208l0.669 0.342c-58.24-30.208-83.285-99.755-58.112-161.536 13.441-31.143 37.763-55.465 68.065-68.582l0.842-0.324c14.484-6.217 31.341-9.832 49.042-9.832 35.304 0 67.25 14.379 90.3 37.6l0.008 0.008c23.234 23.059 37.616 55.008 37.616 90.316 0 32.447-12.146 62.057-32.139 84.532l0.112-0.129c-14.891 16.896-41.387 33.323-63.573 39.381-11.307 3.115-42.069 4.523-53.461 2.432z" />
<glyph unicode="&#xe903;" glyph-name="ok-new" d="M487.253 958.933c-21.645-2.901-40.815-7.051-59.401-12.558l2.739 0.696c-19.627-6.4-55.509-24.747-72.875-37.248-27.332-20.558-50.424-44.953-68.957-72.656l-0.675-1.072c-15.147-23.552-29.568-60.373-35.84-91.605-5.461-27.008-5.376-72.405 0.171-98.517 11.051-52.309 32.896-94.592 67.84-131.371 76.459-80.384 189.824-104.832 292.224-63.019 81.365 33.195 140.288 105.216 159.147 194.389 5.504 26.155 5.589 71.552 0.128 98.517-10.624 52.864-34.261 97.92-70.784 135.040-39.253 39.808-85.589 64.981-139.093 75.392-17.835 3.499-58.923 5.675-74.624 4.011zM535.040 802.133c51.968-10.88 88.875-59.648 85.547-113.109-1.749-28.075-11.947-50.304-32.64-71.211-41.771-42.155-110.421-41.813-152.747 0.683-43.093 43.349-43.179 110.976-0.171 153.728 19.525 20.013 46.761 32.426 76.897 32.426 8.191 0 16.167-0.917 23.833-2.654l-0.719 0.137zM273.237 419.712c-27.623-7.521-48.798-29.22-55.443-56.6l-0.109-0.53c-3.285-14.549-3.328-22.144-0.128-34.475 3.883-14.848 9.131-24.661 18.901-35.2 21.163-22.869 94.592-58.069 150.101-72.021 7.509-1.877 14.763-3.797 16.085-4.267 1.621-0.555-25.131-28.587-76.971-80.597-83.541-83.84-83.755-84.096-89.216-105.216-6.443-24.832 0.469-49.408 19.627-69.845 24.619-26.368 59.179-32.085 92.544-15.403 6.912 3.499 26.283 21.76 86.144 81.493l77.269 76.971 77.184-77.099c71.979-71.893 77.995-77.483 88.704-82.304 9.644-4.598 20.958-7.283 32.9-7.283 28.964 0 54.238 15.796 67.678 39.244l0.201 0.381c9.131 15.659 12.075 38.059 7.339 55.893-5.419 20.437-6.315 21.419-88.533 103.979l-78.507 78.805 7.509 1.877c62.72 16 140.203 52.096 160.384 74.795 15.061 16.939 22.699 41.941 19.157 62.72-6.613 38.571-38.101 65.664-76.288 65.664-15.701 0-27.605-3.499-43.691-12.843-64.555-37.547-137.643-54.144-206.165-46.848-51.285 5.504-95.573 20.395-146.261 49.28-20.395 11.648-40.491 14.763-60.416 9.429z" />
<glyph unicode="&#xe904;" glyph-name="tg" d="M773.973 780.203c-76.032-31.488-653.824-282.795-659.541-286.848-24.832-17.579-20.736-56.917 7.381-71.296 4.949-2.517 27.819-6.443 87.936-15.189 44.672-6.443 87.851-12.245 95.915-12.843 25.728-1.963 59.179 5.077 84.267 17.664 6.613 3.328 60.544 38.571 119.851 78.336 59.349 39.765 109.397 72.32 111.232 72.32 3.84 0 8.747-4.267 8.747-7.552 0-2.944-2.261-6.016-60.715-81.195-54.357-69.888-58.752-76.843-62.336-98.603-0.487-3.475-0.765-7.49-0.765-11.57 0-19.25 6.189-37.055 16.685-51.534l-0.176 0.255c2.219-2.901 38.955-42.24 81.621-87.467 59.093-62.635 79.36-83.072 85.163-85.888 19.883-9.6 46.805-0.085 55.851 19.755 3.2 6.997 12.8 64.512 49.28 294.784 24.917 157.312 45.312 288.555 45.312 291.627-0.191 10.212-4.161 19.461-10.565 26.44l0.027-0.029c-14.037 15.915-31.36 18.688-55.168 8.832z" />
<glyph unicode="&#xe905;" glyph-name="tiktok" d="M554.667 571.051c0-291.968 0.597-276.608-12.117-303.872-29.141-62.336-97.579-90.496-161.749-66.56-30.123 11.221-54.912 34.688-69.419 65.621-9.643 20.523-11.819 30.464-11.819 53.76s2.176 33.237 11.819 53.76c12.12 26.939 33.064 48.118 59.080 60.235l0.738 0.309c18.475 8.917 26.197 11.179 43.947 12.971l11.52 1.195v128l-15.573-1.152c-34.987-2.645-64.299-10.197-93.013-23.936-74.837-35.883-124.373-98.859-142.677-181.461-5.333-24.107-5.333-75.733 0-99.84 23.040-104.021 97.365-178.347 201.173-201.259 24.363-5.376 75.819-5.376 100.181 0 103.765 22.869 177.579 96.683 201.173 201.088 3.755 16.64 3.797 18.475 4.352 178.432l0.512 161.664 14.891-7.424c18.389-9.173 40.32-16.725 62.635-21.547 13.44-2.901 25.088-3.84 55.040-4.565l37.973-0.896v128.427l-27.733 0.043c-29.099 0-43.221 2.005-60.8 8.576-30.123 11.264-54.955 34.731-69.419 65.621-7.936 17.024-10.283 25.173-11.989 42.24l-1.195 11.52h-127.531v-260.949z" />
<glyph unicode="&#xe906;" glyph-name="vk" d="M442.027 738.731l-17.067-2.432c-32.256-4.651-66.133-16.128-78.336-26.581-10.667-9.088-9.429-13.483 4.949-17.493 24.533-6.912 39.552-26.667 48.128-63.317 3.413-14.507 3.797-20.565 3.712-58.027-0.085-35.243-0.683-45.013-3.797-62.293-5.205-28.757-9.685-41.301-17.365-49.067-7.339-7.381-14.72-8.405-25.301-3.541-8.832 4.053-31.573 27.605-44.629 46.208-25.771 36.693-61.909 103.253-88.619 163.371-12.885 28.885-17.365 35.243-28.288 40.32-6.357 2.944-12.672 3.157-91.307 3.157-79.36 0-84.907-0.171-91.605-3.243-7.399-3.089-12.504-10.266-12.504-18.636 0-0.123 0.001-0.247 0.003-0.37v0.018c0-15.488 51.797-122.581 99.84-206.464 70.528-123.136 139.947-212.181 201.557-258.56 43.839-33.571 97.725-56.187 156.451-62.842l1.459-0.134c26.112-3.029 106.112-3.669 115.968-0.939 8.405 2.347 17.835 12.203 20.053 20.992 1.493 8.338 2.52 18.16 2.85 28.159l0.009 0.342c1.792 36.693 8.832 60.8 21.333 72.917 11.093 10.795 23.509 11.349 41.216 1.92 13.056-6.997 26.069-19.029 51.115-47.232 29.355-33.067 50.389-54.144 61.184-61.312 5.12-3.413 15.872-8.533 23.893-11.435l14.592-5.205h187.733l8.533 4.267c18.347 9.173 20.736 23.851 8.064 50.048-14.507 30.037-36.096 55.467-102.357 120.619-41.429 40.747-50.219 50.261-54.187 58.539-9.259 19.371-3.712 34.389 28.757 77.312 66.347 87.808 79.744 105.984 93.44 126.763 8.363 12.715 19.84 32.341 25.472 43.648 19.371 38.869 19.84 57.984 1.621 67.755-5.547 2.987-11.819 3.157-105.387 3.157-79.701 0-100.565-0.469-105.003-2.304-8.192-3.413-15.36-12.629-21.589-27.776-10.795-26.112-16.043-37.632-29.525-64.64-45.696-91.477-94.464-157.483-119.893-162.261-7.083-1.323-13.909 2.347-19.456 10.453-10.411 15.189-13.056 38.955-10.496 94.165 6.613 142.379 6.4 145.451-10.24 159.701-11.989 10.283-36.267 17.408-73.643 21.547-15.36 1.707-61.525 2.176-71.339 0.725z" />
<glyph unicode="&#xe907;" glyph-name="youtube" d="M191.147 829.397c-35.627-5.589-68.523-23.168-95.189-50.944-22.4-23.381-36.907-50.987-44.459-84.693-2.603-11.648-2.859-33.963-2.859-245.76s0.256-234.112 2.859-245.76c16-71.552 69.333-123.435 139.435-135.723 21.461-3.755 620.672-3.755 642.133 0 37.504 6.571 68.309 23.168 95.659 51.584 20.949 21.803 34.261 46.763 42.837 80.384l3.797 14.848v233.813c0 212.608-0.256 234.965-2.859 246.613-7.552 33.707-22.059 61.312-44.459 84.693-27.221 28.373-59.691 45.483-96.853 51.072-23.168 3.499-617.643 3.371-640.043-0.128zM544.811 538.283c58.453-29.184 108.757-54.955 111.787-57.216 3.029-2.304 7.637-7.808 10.24-12.203 4.053-6.869 4.736-9.941 4.736-20.864s-0.683-13.995-4.736-20.864c-2.851-4.702-6.249-8.724-10.179-12.151l-0.061-0.052c-9.515-7.168-216.789-109.781-224.384-111.061-15.787-2.688-35.157 7.851-43.648 23.68-3.712 6.955-3.712 7.125-3.712 120.448 0 113.109 0 113.536 3.669 120.32 4.693 8.619 13.355 16.981 21.077 20.309 5.019 1.68 10.798 2.649 16.803 2.649 0.228 0 0.455-0.001 0.682-0.004h-0.035l11.477 0.085 106.283-53.077z" />
<glyph unicode="&#xe908;" glyph-name="arrow-large-left" d="M92.201 527.38l-70.861-70.82v-17.121l141.722-141.64h8.233c7.086 0 9.052 0.819 14.049 5.816s5.816 6.963 5.816 14.008v8.233l-101.499 101.663h934.339v40.96h-934.339l101.499 101.663v8.233c0 7.045-0.819 9.011-5.816 14.008s-6.963 5.816-14.049 5.816h-8.233l-70.861-70.82z" />
<glyph unicode="&#xe909;" glyph-name="arrow-large-right" d="M838.656 592.384c-4.997-4.997-5.816-6.963-5.816-14.008v-8.233l101.499-101.663h-934.339v-40.96h934.339l-101.499-101.663v-8.233c0-7.045 0.819-9.011 5.816-14.008s6.963-5.816 14.049-5.816h8.233l141.722 141.64v17.121l-141.722 141.64h-8.233c-7.086 0-9.052-0.819-14.049-5.816z" />
<glyph unicode="&#xe90a;" glyph-name="arrow-left" d="M244.676 668.521c-3.901-1.088-7.311-2.739-10.343-4.888l0.103 0.069c-2.711-1.928-48.429-47.164-101.677-100.533-66.861-66.982-97.581-98.906-99.388-103.304-1.574-3.348-2.493-7.271-2.493-11.408 0-4.71 1.191-9.142 3.288-13.011l-0.072 0.144c2.229-4.578 36.683-40.177 102.822-106.195 85.293-85.112 100.472-99.569 106.556-101.316 2.412-0.678 5.182-1.067 8.043-1.067 11.027 0 20.703 5.788 26.155 14.491l0.075 0.129c4.277 6.385 5.18 18.492 2.048 26.925-0.964 2.65-34.153 37.286-73.788 76.92l-72.041 72.102h890.037v59.753h-444.597c-244.495 0-444.597 0.542-444.597 1.265s31.985 33.129 71.017 72.102c39.876 39.755 72.041 73.246 73.367 76.318 1.471 3.833 2.323 8.267 2.323 12.9 0 4.693-0.874 9.183-2.469 13.314l0.086-0.253c-4.335 7.277-11.069 12.741-19.091 15.351l-0.245 0.069c-7.048 1.928-7.529 1.928-15.119 0.12z" />
<glyph unicode="&#xe90b;" glyph-name="arrow-right" d="M762.278 667.678c-7.56-2.751-13.649-8.020-17.384-14.773l-0.084-0.166c-3.072-5.903-3.072-18.673 0-25.72 1.325-3.072 33.491-36.563 73.367-76.318 23.987-23.544 47.137-47.037 69.891-70.911l1.126-1.191c0-0.723-200.102-1.265-444.657-1.265h-444.597l0.422-29.455 0.482-29.455 888.35-1.687-71.017-70.837c-39.876-39.755-72.041-73.246-73.367-76.318-3.735-8.553-3.072-21.143 1.446-27.949 5.527-8.833 15.203-14.62 26.231-14.62 2.861 0 5.631 0.39 8.26 1.119l-0.217-0.051c6.084 1.747 21.263 16.203 106.556 101.316 66.138 66.018 100.593 101.617 102.822 106.195 2.002 3.736 3.179 8.174 3.179 12.886 0 4.62-1.131 8.977-3.131 12.807l0.073-0.153c-2.168 4.578-35.177 38.671-102.822 106.074-85.112 84.872-100.593 99.509-106.436 101.075-8.553 2.349-10.36 2.289-18.492-0.602z" />
<glyph unicode="&#xe90c;" glyph-name="arrow-small-left" d="M450.56 840.564c-5.492-0.931-374.691-369.199-378.228-377.204-1.432-3.296-2.265-7.135-2.265-11.169 0-4.357 0.972-8.488 2.711-12.186l-0.074 0.175c3.537-7.075 360.913-365.196 370.967-371.712 4.321-3.088 9.711-4.937 15.533-4.937 3.452 0 6.752 0.65 9.785 1.835l-0.183-0.063c5.492 2.048 49.059 44.591 52.689 51.479 4.096 7.633 3.072 18.432-2.42 27.089-2.607 4.096-60.323 62.65-128.279 130.048l-123.439 122.415h652.009l7.447 3.91c4.959 2.592 8.896 6.559 11.381 11.395l0.069 0.148c3.91 7.354 4.003 8.564 3.537 42.915-0.652 39.191-0.931 40.308-13.312 48.687l-5.679 3.91h-326.563c-179.665 0-326.563 0.559-326.563 1.21 0 0.745 56.413 57.716 125.3 126.697 69.911 69.911 126.138 127.628 127.162 130.327 1.106 3.151 1.745 6.784 1.745 10.566s-0.639 7.415-1.815 10.796l0.070-0.231c-2.607 6.889-43.753 48.035-51.945 51.852-3.661 1.861-7.984 2.951-12.561 2.951-2.517 0-4.956-0.33-7.278-0.948l0.197 0.045z" />
<glyph unicode="&#xe90d;" glyph-name="arrow-small-right" d="M578.458 874.906c-10.885-8.824-20.645-17.903-29.757-27.596l-0.144-0.154c-18.842-19.354-22.63-24.064-24.269-30.515-0.63-2.402-0.992-5.16-0.992-8.002 0-5.493 1.352-10.67 3.74-15.218l-0.086 0.18c1.024-1.946 63.795-65.229 139.366-140.8 75.674-75.571 137.523-137.933 137.523-138.65s-161.69-1.331-359.322-1.331c-388.403 0-363.52 0.614-372.326-8.806-8.090-8.602-9.011-14.234-9.011-52.122 0-30.72 0.41-36.352 3.174-42.394 4.131-9.129 12.337-15.781 22.233-17.684l0.193-0.031c6.144-1.229 113.664-1.843 362.291-1.843h353.587l-138.65-138.65c-128.102-128.102-138.957-139.366-141.21-147.046-1.041-2.598-1.645-5.611-1.645-8.764 0-2.612 0.414-5.128 1.181-7.484l-0.048 0.171c1.638-6.861 5.12-11.162 25.088-31.539 12.8-13.005 26.419-25.6 30.413-27.853 4.572-2.703 10.076-4.3 15.953-4.3 3.712 0 7.275 0.637 10.586 1.808l-0.222-0.068c7.987 2.662 411.443 406.118 415.232 415.334 1.598 3.117 2.534 6.799 2.534 10.701s-0.936 7.584-2.597 10.836l0.063-0.135c-1.843 4.506-61.645 65.434-205.21 209.203-68.043 68.718-135.537 135.596-203.662 201.828l-3.493 3.381c-3.796 1.603-8.209 2.534-12.839 2.534-6.54 0-12.646-1.858-17.82-5.075l0.143 0.083z" />
<glyph unicode="&#xe90e;" glyph-name="attachment" d="M601.6 926.528c-18.72-2.67-35.338-6.559-51.376-11.739l2.16 0.603c-21.184-7.040-52.032-23.168-69.504-36.416-18.816-14.208-327.68-323.648-343.296-343.936-54.72-71.168-80.64-154.88-74.624-240.96 6.901-101.784 56.485-190.763 130.815-250.017l0.705-0.543c58.045-46.772 132.682-75.076 213.931-75.076 0.615 0 1.23 0.002 1.844 0.005h-0.095c0.456-0.002 0.995-0.003 1.534-0.003 78.17 0 150.25 26.073 208.018 69.997l-0.847-0.618c19.584 14.464 328.064 322.752 334.208 333.952 14.336 26.432-5.632 59.2-36.032 59.072-17.664 0-12.544 4.672-180.032-163.456-169.984-170.56-169.088-169.792-207.36-188.864-34.849-17.918-76.043-28.42-119.69-28.42-67.213 0-128.609 24.906-175.462 65.993l0.304-0.261c-41.92 36.096-75.456 93.952-85.696 148.032-3.334 15.947-5.244 34.272-5.244 53.043 0 60.968 20.14 117.233 54.13 162.503l-0.502-0.699c12.032 16.512 314.432 321.216 331.584 334.144 15.232 11.52 38.592 22.976 56.896 27.968 20.224 5.568 62.208 5.568 82.624 0 110.528-30.016 157.696-158.016 93.504-253.76-4.16-6.144-60.224-63.936-140.8-145.024-183.744-184.96-172.736-174.272-184.96-180.096-7.667-3.974-16.738-6.304-26.354-6.304-3.784 0-7.484 0.361-11.068 1.050l0.365-0.059c-28.914 5.672-50.428 30.812-50.428 60.977 0 3.281 0.254 6.502 0.745 9.645l-0.045-0.349c2.88 20.672-0.576 16.768 160.384 178.304 97.28 97.536 151.040 152.704 153.408 157.248 3.040 5.309 4.832 11.669 4.832 18.449 0 4.063-0.644 7.976-1.835 11.641l0.075-0.266c-4.465 17.007-19.7 29.348-37.818 29.348-0.587 0-1.172-0.013-1.753-0.039l0.083 0.003c-0.337 0.011-0.733 0.017-1.131 0.017-5.821 0-11.331-1.328-16.245-3.698l0.224 0.097c-7.936-4.096-305.792-302.016-315.136-315.264-7.409-10.784-13.993-23.119-19.145-36.176l-0.439-1.264c-12.032-33.728-9.408-78.976 6.272-110.272 12.352-24.64 33.728-48.064 55.744-61.12 14.336-8.448 38.336-16.64 56.256-19.136 32.832-4.608 73.856 6.336 101.76 27.264 4.928 3.648 79.232 77.184 165.184 163.456 169.28 169.856 169.024 169.6 186.88 206.208 15.956 30.229 25.321 66.068 25.321 104.094 0 1.52-0.015 3.036-0.045 4.548l0.004-0.226c0.128 47.872-10.432 87.488-33.92 127.104-35.2 59.456-93.44 100.928-162.944 116.096-12.544 2.688-64.64 4.864-75.968 3.2z" />
<glyph unicode="&#xe90f;" glyph-name="calendar" d="M269.504 898.112c-3.979-3.077-7.225-6.895-9.572-11.268l-0.092-0.188c-3.84-7.616-3.84-7.68-3.84-97.344s0-89.728 3.84-97.28c9.856-19.584 34.56-21.056 48.064-2.816 3.52 4.736 3.584 6.080 3.584 100.096 0 94.080-0.064 95.424-3.584 100.16-9.472 12.736-26.496 16.576-38.4 8.64zM725.312 898.112c-3.497-2.518-6.527-5.364-9.15-8.557l-0.066-0.083c-3.52-4.736-3.584-6.080-3.584-100.16 0-94.016 0.064-95.36 3.584-100.096 5.066-7.605 13.605-12.548 23.298-12.548 0.157 0 0.313 0.001 0.469 0.004h-0.024c11.264 0 19.072 4.928 24.32 15.36 3.84 7.552 3.84 7.616 3.84 97.28s0 89.728-3.84 97.344c-3.909 9.082-12.78 15.325-23.11 15.325-0.425 0-0.848-0.011-1.269-0.032l0.059 0.002c-6.4 0-10.432-1.024-14.528-3.84zM91.264 786.24c-16.632-5.715-29.143-19.412-33.085-36.395l-0.067-0.341c-1.28-6.144-1.728-108.736-1.408-334.784l0.448-325.952 4.8-9.792c3.376-6.372 7.539-11.821 12.452-16.486l0.028-0.026c15.040-13.184-24.512-12.096 437.568-12.096s422.528-1.088 437.568 12.096c4.941 4.691 9.104 10.14 12.315 16.172l0.165 0.34 4.8 9.792v662.144l-3.712 7.936c-5.812 11.219-14.719 20.146-25.59 25.827l-0.33 0.157c-7.488 3.456-10.944 3.648-60.416 4.16l-52.48 0.512v-56.512h85.312v-626.304h-795.264v626.304h85.312v56.32l-49.92-0.064c-42.816 0-51.136-0.448-58.496-3.008zM370.368 761.152v-28.16h283.264v56.32h-283.264v-28.16zM227.776 560.192c-0.512-1.216-0.64-14.144-0.384-28.608l0.448-26.432h56.32v56.32l-27.776 0.512c-21.696 0.32-27.968-0.064-28.608-1.792zM398.4 560.192c-0.448-1.216-0.64-14.144-0.384-28.608l0.512-26.432h56.32v56.32l-27.776 0.512c-21.76 0.32-27.968-0.064-28.672-1.792zM569.088 560.192c-0.448-1.216-0.64-14.144-0.384-28.608l0.448-26.432h56.32v56.32l-27.776 0.512c-21.696 0.32-27.904-0.064-28.608-1.792zM739.776 560.192c-0.512-1.216-0.64-14.144-0.384-28.608l0.448-26.432h56.32v56.32l-27.776 0.512c-21.696 0.32-27.968-0.064-28.608-1.792zM227.008 390.848v-28.16h57.984v56.32h-57.984v-28.16zM397.632 390.848v-28.16h58.048v56.32h-58.048v-28.16zM568.32 390.848v-28.16h58.048v56.32h-58.048v-28.16zM739.008 390.848v-28.16h57.984v56.32h-57.984v-28.16zM227.008 249.152v-28.16h57.984v56.32h-57.984v-28.16zM397.632 249.152v-28.16h58.048v56.32h-58.048v-28.16zM568.32 249.152v-28.16h58.048v56.32h-58.048v-28.16zM739.008 249.152v-28.16h57.984v56.32h-57.984v-28.16z" />
<glyph unicode="&#xe910;" glyph-name="catalog-number" d="M659.968 131.669c-5.471 4.504-12.55 7.235-20.266 7.235-17.673 0-32-14.327-32-32 0-10.225 4.796-19.33 12.261-25.188l0.069-0.052 39.936 50.005zM920.064 170.923c5.253 5.683 8.475 13.312 8.475 21.693 0 17.673-14.327 32-32 32-9.868 0-18.692-4.466-24.562-11.488l-0.041-0.051 48.128-42.155zM218.197 596.736c-2.015 0.451-4.329 0.71-6.704 0.71-17.673 0-32-14.327-32-32 0-16.608 12.653-30.261 28.844-31.846l0.132-0.010 9.728 63.147zM372.48 491.179c3.417-1.358 7.377-2.145 11.52-2.145 17.679 0 32.011 14.332 32.011 32.011 0 13.536-8.401 25.11-20.274 29.791l-0.217 0.075-23.040-59.733zM544 659.115c0 17.673-14.327 32-32 32s-32-14.327-32-32v0h64zM512 21.333v-32c17.673 0 32 14.327 32 32v0h-32zM906.667 320c0-17.673 14.327-32 32-32s32 14.327 32 32v0h-64zM218.197 426.069c-2.015 0.451-4.329 0.71-6.704 0.71-17.673 0-32-14.327-32-32 0-16.608 12.653-30.261 28.844-31.846l0.132-0.010 9.728 63.147zM290.816 346.197c2.357-0.62 5.062-0.977 7.851-0.977 17.694 0 32.038 14.344 32.038 32.038 0 14.905-10.179 27.434-23.965 31.012l-0.223 0.049-15.701-62.123zM620.032 81.664l74.752-59.733 40.021 49.92-74.837 59.819-39.936-50.005zM797.611 30.976l122.453 139.947-48.128 42.155-122.453-139.947 48.128-42.155zM694.784 21.845c12.657-10.192 28.929-16.36 46.641-16.36 22.363 0 42.429 9.831 56.113 25.406l0.072 0.084-48.128 42.155c-1.964-2.225-4.824-3.621-8.009-3.621-2.533 0-4.859 0.883-6.689 2.357l0.020-0.016-40.021-50.005zM208.384 533.504c61.712-9.25 116.987-23.985 169.608-44.090l-5.512 1.85 23.040 59.648c-50.904 19.79-110.628 35.773-172.502 45.219l-4.821 0.605-9.728-63.147zM480 659.115v-637.781h64v637.781h-64zM166.827 757.077c92.843-10.496 213.589-38.485 297.643-97.365l36.693 52.395c-97.024 68.096-230.656 97.707-327.083 108.544l-7.168-63.573zM166.827 101.717c92.843-10.581 213.589-38.571 297.643-97.451l36.693 52.395c-97.024 68.181-230.656 97.792-327.083 108.629l-7.168-63.659zM53.333 706.731v-480.597h64v480.683h-64zM173.995 165.291c-32 3.584-56.661 30.208-56.661 60.843h-64c0-65.792 51.797-117.504 113.493-124.501l7.168 63.659zM173.995 820.651c-68.779 7.765-120.661-49.579-120.661-113.835h64c0 32.256 24.576 53.077 49.493 50.261l7.168 63.573zM850.005 820.651c-96.427-10.923-230.059-40.448-327.253-108.544l36.693-52.395c84.139 58.88 204.8 86.869 297.728 97.28l-7.168 63.659zM906.667 706.816v-386.816h64v386.816h-64zM857.173 757.077c24.917 2.816 49.493-18.005 49.493-50.347h64c0 64.341-51.883 121.685-120.661 113.92l7.168-63.573zM464.469 659.627c13.252-9.354 29.738-14.951 47.531-14.951s34.279 5.597 47.793 15.126l-0.262-0.175-36.693 52.395c-3.017-2.102-6.759-3.358-10.795-3.358s-7.778 1.256-10.857 3.399l0.062-0.041-36.693-52.395zM464.469 4.267c13.24-9.392 29.728-15.015 47.53-15.019h0.001v64c-4.029 0.009-7.757 1.286-10.81 3.453l0.058-0.039-36.693-52.48zM208.469 362.752c26.453-4.096 54.272-9.557 82.347-16.64l15.701 62.123c-30.293 7.68-60.16 13.397-88.32 17.749l-9.728-63.147z" />
<glyph unicode="&#xe911;" glyph-name="checked" d="M623.787 593.067l-281.6-281.6-221.867 221.867-119.467-119.467 341.333-341.333 682.667 682.667-119.467 119.467-281.6-281.6z" />
<glyph unicode="&#xe912;" glyph-name="chevron-down" d="M172.8 659.2l-44.8-44.8 384-384 384 384-89.643 89.6-294.656-292.395-95.829 95.403c-44.559 44.393-92.461 92.025-140.408 139.612l-57.907 57.38-44.757-44.8z" />
<glyph unicode="&#xe913;" glyph-name="chevron-left" d="M448.853 640l-192-192 384-384 89.344 89.301-145.365 146.475c-79.957 80.555-145.365 147.243-145.365 148.224 0 0.939 65.408 67.627 145.365 148.224l145.365 146.475-89.344 89.301-192-192z" />
<glyph unicode="&#xe914;" glyph-name="chevron-right" d="M363.477 787.797c-13.532-14.084-27.276-28.964-40.728-44.109l-1.384-1.587c-0.256-0.768 61.355-66.987 136.917-147.115 75.52-80.128 137.344-146.261 137.344-146.987s-61.824-66.859-137.344-146.987c-75.563-80.128-137.173-146.347-136.917-147.115 0.213-0.768 19.2-21.333 42.112-45.696l41.685-44.288 6.272 6.443c3.413 3.541 85.077 89.984 181.461 192.043l175.189 185.6-175.189 185.6c-135.766 144.378-194.937 206.897-254.154 269.373l72.693-77.33-6.272 6.443-41.685-44.288z" />
<glyph unicode="&#xe915;" glyph-name="chevron-up" d="M320.427 511.573l-192.427-192.427 89.301-89.301 146.475 145.323c80.555 79.957 147.243 145.365 148.224 145.365 0.939 0 67.627-65.408 148.181-145.365l146.517-145.365 90.155 90.197-384 384-192.427-192.427z" />
<glyph unicode="&#xe916;" glyph-name="close" d="M241.237 731.605c-15.573-11.392-21.163-25.685-15.061-38.528 1.835-3.84 49.067-52.693 121.557-125.696l118.571-119.381-118.571-119.339c-67.243-67.712-119.765-121.941-121.344-125.269-1.785-3.32-2.833-7.265-2.833-11.455 0-5.615 1.883-10.79 5.052-14.929l-0.043 0.059c11.179-15.403 25.557-20.992 38.357-14.891 3.84 1.835 52.693 49.067 125.696 121.557l119.381 118.571 119.381-118.571c73.003-72.491 121.856-119.723 125.696-121.557 12.8-6.101 27.179-0.512 38.357 14.891 3.129 4.085 5.013 9.268 5.013 14.89 0 4.164-1.034 8.087-2.859 11.526l0.065-0.133c-1.579 3.285-54.656 58.069-121.387 125.269l-118.571 119.381 118.571 119.381c72.491 73.003 119.723 121.856 121.557 125.696 10.709 22.528-18.219 51.456-40.789 40.747-3.883-1.835-52.267-48.64-125.696-121.557l-119.339-118.571-117.035 116.224c-64.341 63.957-119.595 118.229-122.752 120.661-4.134 2.978-9.216 4.892-14.722 5.244l-0.083 0.004c-8.149 0.853-9.813 0.384-16.171-4.224z" />
<glyph unicode="&#xe917;" glyph-name="download" d="M294.4 905.28c-68.352-1.024-70.208-1.216-87.040-9.728-13.519-6.81-25.038-15.508-34.75-25.913l-0.066-0.071c-13.36-12.756-23.44-28.835-28.92-46.913l-0.2-0.767-5.184-15.808v-715.264l3.584-12.096c6.848-23.104 16.96-40 33.408-55.936 15.232-14.784 28.736-22.528 51.776-29.824l12.8-4.032h544.384l13.056 4.096c19.904 6.144 36.672 15.744 50.56 28.992 15.36 14.528 25.92 31.232 32.704 51.648l5.248 15.616v236.928c0 138.176-0.704 243.008-1.664 251.52l-1.6 14.464-154.304 153.92c-84.928 84.608-156.544 155.008-159.232 156.352-4.096 2.112-21.504 2.624-107.328 3.136-56.32 0.384-131.584 0.192-167.232-0.32zM681.472 702.656l139.584-139.648-0.512-235.392-0.512-235.456-4.544-8.512c-6.356-10.978-15.192-19.875-25.779-26.122l-0.333-0.182-6.848-3.584h-541.056l-6.848 3.584c-11.858 6.956-21.244 17-27.212 29.038l-4.852 10.834 0.96 354.368c0.896 326.848 1.216 354.816 3.84 359.936 4.224 8.192 16 20.288 23.808 24.448 9.28 4.992 25.408 5.504 183.552 5.952l127.168 0.32 139.584-139.584zM494.208 645.504c-4.282-2.641-7.744-6.226-10.165-10.48l-0.075-0.144c-3.52-6.72-3.52-8.64-4.096-153.344l-0.576-146.496-54.016 53.568c-29.76 29.504-57.92 56.192-62.592 59.392-17.024 11.712-37.44 7.936-55.552-10.112-4.601-4.598-8.557-9.84-11.723-15.579l-0.181-0.357c-2.070-5-3.272-10.807-3.272-16.895 0-4.964 0.799-9.74 2.276-14.209l-0.092 0.32c1.28-3.008 17.28-21.248 35.584-40.448 42.304-44.544 152.384-153.024 161.792-159.552 6.068-3.741 13.421-5.958 21.292-5.958 4.655 0 9.129 0.775 13.3 2.204l-0.289-0.086c7.488 3.136 52.288 45.568 116.032 109.888 64.448 65.152 85.184 87.232 88 93.952 1.385 4.149 2.184 8.926 2.184 13.889 0 6.088-1.202 11.894-3.382 17.196l0.11-0.301c-3.347 6.096-7.303 11.338-11.904 15.936v0c-18.112 18.048-38.464 21.76-55.552 10.112-4.672-3.136-32.832-29.888-62.592-59.392l-54.144-53.696-1.024 293.12-4.032 7.104c-5.696 9.856-14.208 14.272-27.776 14.208-0.666 0.050-1.443 0.078-2.226 0.078-5.615 0-10.891-1.452-15.472-4.001l0.162 0.083z" />
<glyph unicode="&#xe918;" glyph-name="edit" d="M468.864 632.704l-214.592-214.592-15.552-88.768c-14.016-80.192-15.36-89.408-13.568-96.064 3.389-11.228 11.992-19.915 22.921-23.357l0.247-0.067c8.896-2.624 9.536-2.496 97.472 12.928l88.576 15.488 214.592 214.528c170.816 170.752 214.592 215.36 214.592 218.752 0 6.272-169.536 175.808-175.744 175.808-3.392 0-48.448-44.16-218.944-214.656zM724.928 708.672l36.224-36.288-364.352-363.904-42.24-7.296c-23.232-4.032-42.752-6.848-43.328-6.272-0.64 0.64 2.176 20.544 6.272 44.224l7.296 43.136 181.056 181.376c60.296 60.668 119.578 119.747 179.141 178.543l2.811 2.769c0.448 0 17.152-16.32 37.12-36.288zM130.368 120.448c-4.716-2.448-8.693-5.669-11.918-9.539l-0.050-0.061-4.928-6.464v-53.056l4.288-2.176c3.392-1.728 81.92-2.112 396.288-1.792 373.696 0.384 392.192 0.576 395.136 3.456 2.368 2.368 3.136 6.528 3.584 18.88 1.088 29.44-4.416 44.096-19.136 50.752-6.784 3.136-19.392 3.2-381.632 3.2s-374.848-0.064-381.632-3.2z" />
<glyph unicode="&#xe919;" glyph-name="error" d="M447.147 912.128c-55.808-8.405-98.432-21.717-145.067-45.227-26.923-13.611-63.275-36.736-83.84-53.333-17.237-13.909-58.667-55.467-72.533-72.747-57.93-71.956-95.115-162.803-101.267-262.053l-0.066-1.328c-1.877-33.579 0-78.208 4.267-102.955 19.115-110.251 66.475-197.12 149.461-274.133 68.779-63.744 160.299-105.685 258.517-118.357 19.669-2.56 90.923-2.56 110.848 0 80.981 10.283 163.285 43.349 225.28 90.496 47.829 36.395 94.165 88.235 124.245 139.051 35.413 59.819 58.837 137.003 62.635 206.464 5.845 107.136-19.755 202.667-77.824 290.261-17.792 26.837-31.275 43.051-58.496 70.272-29.141 29.099-40.533 38.571-71.637 59.349-59.797 40.804-131.886 68.076-209.72 75.835l-1.907 0.154c-29.013 2.859-88.192 1.963-112.896-1.749zM569.173 827.733c69.693-11.066 131.378-39.198 182.548-79.967l-0.788 0.607c18.133-14.464 53.931-51.115 67.2-68.821 87.125-116.352 102.059-270.507 38.741-399.659-20.352-41.515-43.563-73.216-78.891-107.648-62.336-60.8-141.653-97.579-230.016-106.709-24.064-2.475-73.301-1.109-95.659 2.688-97.498 16.628-180.922 67.369-239.304 139.267l-0.568 0.723c-33.406 41.484-58.691 91.014-72.549 145.121l-0.581 2.677c-8.149 33.109-10.283 52.437-10.283 91.989 0 64.171 10.837 111.957 38.144 168.149 46.933 96.555 135.339 171.051 237.781 200.405 20.821 5.973 49.195 11.477 70.357 13.653 20.821 2.133 72.96 0.768 93.867-2.475zM500.053 659.84c-12.376-2.234-22.463-10.361-27.383-21.312l-0.094-0.234c-2.987-6.4-3.157-12.928-3.157-104.96 0-91.264 0.213-98.603 3.115-104.96 4.646-9.061 12.276-16.041 21.567-19.742l0.279-0.098c10.667-3.712 30.848-2.944 39.211 1.493 8.533 4.48 17.109 14.421 19.541 22.613 2.816 9.472 1.237 197.077-1.749 204.8-3.452 8.423-9.825 15.059-17.831 18.768l-0.217 0.090c-7.074 2.656-15.249 4.193-23.783 4.193-3.35 0-6.644-0.237-9.867-0.695l0.37 0.043zM500.608 318.208c-15.531-3.072-24.405-11.264-28.928-26.795-4.864-16.811-0.725-36.096 9.899-45.995 12.843-11.989 42.453-13.739 58.069-3.413 4.077 3.313 7.392 7.392 9.759 12.035l0.097 0.21c3.456 7.040 4.181 10.965 4.139 23.040-0.085 25.045-8.704 37.035-29.525 40.96-3.503 0.932-7.525 1.468-11.672 1.468-4.207 0-8.285-0.551-12.167-1.585l0.329 0.075z" />
<glyph unicode="&#xe91a;" glyph-name="eye-close" d="M447.616 826.816c-71.104-10.752-142.528-40.832-210.688-88.832-6.834-5.204-14.553-10.247-22.628-14.729l-0.988-0.503c-2.432 0-28.48 17.472-64.384 43.2-36.992 26.496-63.424 44.608-69.824 47.872-4.331 1.877-9.353 3.232-14.608 3.818l-0.24 0.022c-11.776 1.408-21.056-2.688-32.576-14.272-14.016-14.272-20.8-33.792-16.32-47.424 4.352-12.992 13.504-20.8 81.92-69.824 22.080-15.808 40.768-29.248 41.536-29.952s-5.696-9.216-14.272-18.944c-46.4-52.352-97.408-124.16-117.12-164.928-11.392-23.616-9.728-33.92 11.008-68.864 39.589-66.379 84.557-123.731 135.835-174.747l0.037-0.037c87.616-87.232 178.56-137.728 286.016-158.848 38.592-7.552 111.296-6.656 153.024 1.92 68.928 14.208 130.176 41.536 194.752 86.848 11.456 8.064 21.696 14.656 22.72 14.656 2.752 0 20.48-11.84 62.976-42.048 47.744-33.92 68.608-48 74.688-50.304 3.616-1.178 7.776-1.857 12.096-1.857 7.036 0 13.651 1.802 19.409 4.97l-0.209-0.105c15.975 8.614 26.989 24.631 28.468 43.332l0.012 0.188c0.704 9.408 0.128 12.8-2.944 19.2-4.992 10.24-8.832 13.376-68.608 56.064-27.968 19.904-50.88 36.992-50.88 37.952-0.064 1.984 6.72 10.432 29.568 36.864 30.464 35.136 61.504 78.464 88.256 123.008 15.808 26.368 21.248 40.832 19.648 52.352-1.408 10.432-11.072 29.568-30.4 60.352-49.664 78.912-111.68 149.952-176.768 202.368-80.384 64.832-170.816 104.704-255.936 113.024-28.48 2.752-88.896 1.792-112.576-1.792zM567.040 741.44c57.152-9.344 116.8-34.752 169.216-72.064 48.64-34.56 101.376-86.912 142.4-141.248 14.4-19.072 45.696-65.408 50.432-74.56 3.584-6.976 3.456-7.232-19.968-42.24-26.648-40.121-54.272-75.104-84.461-107.675l0.493 0.539-11.968-12.992-59.712 42.752c-67.712 48.448-77.632 56.32-77.632 61.696 0 2.048 1.536 11.584 3.392 21.248 2.038 9.637 3.205 20.709 3.205 32.055 0 19.033-3.284 37.298-9.316 54.261l0.351-1.132c-10.968 31.044-29.338 57.167-53.047 77.158l-0.265 0.218c-14.4 11.456-48.192 28.928-64.64 33.408-13.76 3.712-56.704 5.184-73.92 2.496-16.448-2.624-42.752-12.992-61.504-24.256l-14.336-8.64-4.48 3.264-54.144 38.656c-25.892 18.152-43.876 31.314-61.676 44.707l6.444-4.643-5.504 4.608 17.664 11.648c27.595 17.428 59.393 33.268 92.793 45.834l3.655 1.206c33.24 11.43 71.541 18.029 111.384 18.029 19.468 0 38.568-1.576 57.179-4.606l-2.035 0.273zM254.528 573.76c54.016-38.336 90.88-65.28 93.312-68.16 1.408-1.728 1.152-5.504-1.216-15.104-7.232-29.568-6.016-67.136 2.944-93.696 23.296-68.864 82.368-114.752 153.152-118.912 36.672-2.176 68.288 6.848 109.376 31.104 5.248 3.136 5.504 3.136 11.584-0.128 6.144-3.328 68.032-47.104 97.024-68.608 8.256-6.144 14.72-12.032 14.4-13.056-0.256-1.088-6.912-6.208-14.656-11.392-47.757-32.061-104.563-54.626-165.784-63.605l-2.216-0.267c-75.52-9.856-157.76 8.96-231.68 53.056-75.008 44.736-144.832 114.688-206.016 206.464-22.976 34.496-23.36 35.2-20.032 41.728 9.088 17.472 44.416 67.968 67.84 96.832 17.728 21.824 46.656 53.312 49.088 53.312 0.704 0 20.032-13.312 42.88-29.568zM529.536 530.816c34.816-7.36 62.144-37.248 66.688-73.024 0.768-6.144 0.512-8.064-1.28-8.064-2.688 0-36.096 22.912-79.36 54.464-33.6 24.512-33.472 24.384-18.496 27.328 4.409 0.939 9.475 1.476 14.667 1.476 6.314 0 12.443-0.795 18.291-2.291l-0.51 0.111zM459.968 426.944c46.528-32.896 79.424-57.664 78.464-59.2-2.729-1.6-5.923-2.748-9.329-3.247l-0.143-0.017c-44.096-9.408-90.24 21.056-99.776 65.984-3.136 14.656-3.2 19.84-0.384 18.176 1.152-0.64 15.168-10.432 31.168-21.696z" />
<glyph unicode="&#xe91b;" glyph-name="eye-open" d="M473.792 830.272c-146.432-13.184-285.76-102.4-401.28-256.832-23.808-31.872-44.096-62.848-60.48-92.288-15.872-28.544-15.872-37.76 0-66.304 55.36-99.52 141.44-197.76 226.624-258.56 64.768-46.272 138.88-76.992 212.736-88.256 28.8-4.352 92.416-4.352 121.216 0 60.023 9.727 113.885 29 162.584 56.373l-2.456-1.269c100.544 55.872 200.512 158.208 270.848 277.056 26.24 44.352 26.432 50.688 2.624 91.328-62.080 105.856-148.672 200.576-235.648 257.856-66.56 43.776-127.872 67.84-199.616 78.336-19.125 2.246-41.281 3.527-63.737 3.527-11.755 0-23.428-0.351-35.009-1.044l1.594 0.076zM543.552 744.896c138.432-12.992 270.976-110.528 377.536-277.696 5.824-9.152 10.56-17.792 10.56-19.2 0-5.888-40.256-64.96-66.88-98.112-104.96-130.624-227.904-200.576-352.768-200.576-65.6 0-132.864 19.904-195.264 57.856-74.176 44.992-145.664 117.568-204.48 207.552-22.272 34.112-21.44 32.256-17.664 38.848 6.528 11.456 32.64 50.496 44.16 66.112 117.696 159.36 260.48 238.784 404.8 225.216zM487.808 616.96c-27.457-4.659-51.919-14.72-73.236-29.091l0.66 0.419c-33.089-23.030-57.389-56.686-68.074-95.951l-0.278-1.201c-4.096-14.848-4.608-19.584-4.608-43.136 0-23.616 0.512-28.288 4.672-43.392 14.539-52.698 52.021-94.529 100.742-114.715l1.146-0.421c77.376-30.784 168.192 0.256 210.112 71.808 45.184 77.184 23.104 177.28-50.176 227.008-16.060 10.579-34.627 19.211-54.431 24.924l-1.441 0.356c-16.512 4.032-50.112 5.76-65.088 3.392zM528.32 531.456c34.24-6.208 62.144-35.328 67.584-70.464 0.6-3.809 0.943-8.202 0.943-12.676 0-47.017-37.893-85.184-84.805-85.628h-0.042c-42.247 0.515-77.127 31.407-83.835 71.819l-0.069 0.501c-0.713 4.078-1.121 8.774-1.121 13.565 0 23.27 9.62 44.294 25.1 59.311l0.021 0.020c15.011 15.601 36.067 25.291 59.386 25.291 5.962 0 11.776-0.633 17.379-1.837l-0.541 0.097z" />
<glyph unicode="&#xe91c;" glyph-name="filter" d="M205.269 862.805c-8.68-2.824-15.791-8.455-20.431-15.802l-0.091-0.155c-2.773-5.035-3.029-15.915-3.456-145.621l-0.469-140.16-8.064-3.029c-35.55-13.884-62.409-43.183-72.67-79.452l-0.205-0.847c-14.891-56.96 16.512-118.656 70.656-138.923l10.368-3.883v-136.747c0-94.507 0.597-138.837 1.92-143.531 2.517-9.088 12.501-18.816 21.888-21.333 17.067-4.608 34.645 5.12 39.253 21.76 1.152 4.139 1.792 54.315 1.792 143.104v136.747l10.368 3.883c46.080 17.237 79.104 69.589 74.24 117.675-4.779 47.189-33.621 85.504-76.459 101.547l-8.064 3.029-0.469 140.16c-0.469 137.771-0.512 140.245-3.968 146.091-6.185 9.788-16.947 16.193-29.205 16.193-2.455 0-4.849-0.257-7.159-0.745l0.225 0.040zM503.936 862.805c-8.68-2.824-15.791-8.455-20.431-15.802l-0.091-0.155c-2.475-4.565-3.072-11.008-3.541-38.912l-0.555-33.451-9.685-3.968c-50.389-20.821-80.896-70.997-74.069-121.899 3.712-27.904 13.867-49.579 31.957-68.267 12.928-13.397 25.472-21.803 41.941-28.203 44.373-17.109 93.013-6.571 126.464 27.477 24.235 24.661 37.077 62.421 32.469 95.232-6.357 44.843-32.384 78.464-74.027 95.659l-9.685 3.968-0.555 33.451c-0.512 30.037-0.896 34.048-4.053 39.381-6.185 9.788-16.947 16.193-29.205 16.193-2.455 0-4.849-0.257-7.159-0.745l0.225 0.040zM802.603 862.805c-8.68-2.824-15.791-8.455-20.431-15.802l-0.091-0.155c-2.773-5.077-3.029-18.645-3.456-203.136-0.299-141.099 0.085-199.723 1.451-204.757 3.542-10.31 11.591-18.247 21.732-21.564l0.241-0.068c2.599-0.764 5.584-1.204 8.672-1.204 14.545 0 26.811 9.756 30.612 23.081l0.055 0.224c1.195 4.437 1.621 71.040 1.323 204.288-0.469 195.712-0.512 197.717-3.968 203.605-6.185 9.788-16.947 16.193-29.205 16.193-2.455 0-4.849-0.257-7.159-0.745l0.225 0.040zM503.936 478.805c-8.68-2.824-15.791-8.455-20.431-15.802l-0.091-0.155c-2.773-5.077-3.029-18.645-3.456-203.136-0.299-141.099 0.085-199.723 1.451-204.757 3.542-10.31 11.591-18.247 21.732-21.564l0.241-0.068c2.599-0.764 5.584-1.204 8.672-1.204 14.545 0 26.811 9.756 30.612 23.081l0.055 0.224c1.195 4.437 1.621 71.040 1.323 204.288-0.469 195.712-0.512 197.717-3.968 203.605-6.185 9.788-16.947 16.193-29.205 16.193-2.455 0-4.849-0.257-7.159-0.745l0.225 0.040zM794.411 350.72c-26.579-4.003-49.749-16.314-67.313-34.16l-0.015-0.016c-18.859-19.285-29.056-40.704-32.853-69.163-6.827-51.072 26.197-104.533 75.904-122.837l8.107-2.987v-30.037c0-16.683 0.853-33.109 1.92-36.864 2.517-9.088 12.501-18.816 21.888-21.333 17.067-4.608 34.645 5.12 39.253 21.76 0.981 3.499 1.792 19.883 1.792 36.437v30.037l8.107 2.987c56.149 20.651 87.637 81.28 72.789 139.989-14.293 56.363-71.296 94.251-129.579 86.187z" />
<glyph unicode="&#xe91d;" glyph-name="link" d="M801.28 910.541l-131.379-0.922-7.578-4.198c-8.806-5.018-13.414-12.902-14.95-25.19-2.253-19.661 6.656-35.533 22.221-39.424 5.325-1.331 35.123-1.946 95.334-1.946h87.552l-194.97-194.97c-137.83-138.035-195.686-196.915-197.53-201.421-5.018-12.288-2.458-23.040 8.397-35.123 11.469-12.698 25.088-16.691 38.093-11.366 4.506 1.843 63.386 59.699 201.318 197.53l195.072 194.97v-87.552c0-60.211 0.614-90.010 1.946-95.334 2.686-10.216 10.571-18.101 20.586-20.742l0.201-0.045c22.733-5.734 42.394 2.867 46.899 20.48 1.229 5.018 1.946 50.893 2.15 143.36l0.205 135.885-4.096 8.294c-3.379 7.066-5.632 9.114-14.95 13.824-4.837 3.044-10.679 4.924-16.946 5.119l-0.052 0.001c-3.379-0.205-65.229-0.717-137.523-1.229zM227.84 908.083c-78.053-11.226-141.301-64.67-166.467-136.075l-0.445-1.449c-11.264-32.973-10.547-12.493-10.547-322.56 0-265.011 0.102-281.6 3.072-295.219 17.203-80.589 76.8-142.95 153.907-161.075 25.395-5.939 39.117-6.246 304.64-6.246s279.245 0.307 304.64 6.246c74.030 18.689 131.355 75.401 150.61 147.648l0.328 1.447c6.144 24.166 7.168 43.418 6.554 132.301-0.512 82.637-0.614 85.504-3.994 92.16-5.53 10.445-15.462 15.36-31.437 15.36s-26.010-4.915-31.437-15.36c-3.482-6.656-3.584-9.83-4.506-102.4-0.922-92.979-1.024-95.949-4.813-108.442-6.861-22.63-16.384-38.195-34.406-56.525-14.767-15.972-33.432-28.128-54.493-34.971l-0.906-0.254-13.722-4.608h-564.838l-13.722 4.608c-21.966 7.098-40.632 19.254-55.32 35.14l-0.078 0.085c-15.902 15.076-27.864 34.156-34.279 55.629l-0.23 0.896-3.891 12.8-0.512 274.842c-0.41 246.272-0.205 276.173 2.253 288.358 5.632 28.058 15.77 46.592 37.478 68.301 15.872 15.872 27.443 23.859 45.261 31.027 20.992 8.397 29.491 9.114 122.266 9.114 59.085 0 88.576 0.614 93.901 1.946 15.565 3.891 24.474 19.763 22.118 39.424-1.434 12.288-6.042 20.173-14.848 25.19l-7.578 4.198-89.6 0.307c-64.614 0.205-93.901-0.307-104.96-1.843z" />
<glyph unicode="&#xe91e;" glyph-name="login" d="M631.467 861.184c-16.939-2.603-21.333-8.576-21.333-29.099 0-12.544 0.555-15.36 3.968-20.139 2.105-2.997 4.653-5.518 7.579-7.529l0.101-0.065c2.688-1.493 30.72-2.347 102.699-3.157l98.987-1.067 8.533-4.395c11.989-6.229 18.603-12.501 25.557-24.235l6.016-10.112v-625.835l-3.627-7.211c-5.647-12.254-15.287-21.866-27.22-27.336l-0.343-0.141-12.331-5.931-96.427-0.725c-62.635-0.469-98.005-1.365-100.907-2.56-3.449-1.835-6.308-4.353-8.483-7.393l-0.050-0.073c-3.499-4.907-4.053-7.637-4.053-20.267 0-16.469 2.261-21.675 11.52-26.752 5.12-2.816 13.269-3.029 109.653-3.029h104.107l12.501 4.565c17.963 6.571 29.44 14.080 44.288 29.013 15.275 15.275 23.765 28.587 29.525 46.037l4.139 12.544v645.12l-4.523 12.331c-2.934 7.949-5.98 14.588-9.455 20.959l0.41-0.821c-10.027 17.067-32.725 38.571-49.664 46.976-21.803 10.88-19.541 10.667-126.208 11.136-53.504 0.213-100.736-0.128-104.96-0.811zM415.573 690.517c-17.707-8.235-25.515-25.515-18.475-40.875 1.792-3.797 34.048-37.547 83.115-86.912 49.664-49.963 79.573-81.28 78.592-82.261-0.939-0.939-88.661-1.792-222.592-2.091-219.264-0.512-221.056-0.555-226.987-4.011-8.32-4.864-10.965-11.179-10.965-26.368s2.645-21.504 10.965-26.368c5.931-3.456 8.021-3.499 227.285-4.352 121.685-0.469 221.867-1.408 222.549-2.133 0.725-0.683-34.773-37.547-78.891-81.92-49.067-49.323-81.28-83.072-83.072-86.869-5.248-11.392-3.157-22.059 6.187-31.915 7.381-7.723 16.683-12.203 25.259-12.203 8.448 0 4.053-4.011 108.203 98.987 30.285 29.991 62.755 61.975 95.309 93.874l4.361 4.26c30.635 29.824 35.925 37.035 35.925 48.64 0 11.648-5.248 18.773-36.779 49.493-37.075 36.325-69.55 68.313-101.945 100.382l2.275-2.249c-102.357 101.248-98.987 98.133-106.88 98.091-4.916-0.265-9.498-1.417-13.682-3.297l0.242 0.097z" />
<glyph unicode="&#xe91f;" glyph-name="logout" d="M196.267 861.013c-27.776-2.859-49.579-15.104-72.192-40.576-9.277-10.252-16.585-22.482-21.201-35.962l-0.218-0.732-4.523-12.331v-645.12l4.139-12.544c5.76-17.451 14.251-30.763 29.525-46.037 14.848-14.933 26.325-22.443 44.288-29.013l12.501-4.565h104.107c101.888 0 104.235 0.085 110.080 3.499 8.576 5.035 11.051 11.179 11.093 27.221 0 11.648-0.597 14.507-4.053 19.328-2.226 3.114-5.085 5.632-8.403 7.403l-0.131 0.064c-2.901 1.195-38.272 2.091-100.907 2.56l-96.427 0.725-12.331 5.931c-12.276 5.611-21.915 15.223-27.421 27.136l-0.141 0.341-3.627 7.211v625.835l6.016 10.112c6.955 11.733 13.568 18.005 25.557 24.235l8.533 4.395 98.133 1.152c64.427 0.768 99.669 1.792 102.613 3.029 3.439 1.867 6.294 4.395 8.483 7.435l0.051 0.074c3.456 4.821 4.053 7.68 4.053 19.328-0.043 16.043-2.517 22.187-11.093 27.221-5.803 3.413-8.491 3.499-99.84 3.755-51.627 0.128-99.627-0.384-106.667-1.109zM587.605 692.053c-2.048-0.853-41.259-38.613-87.083-83.968-34.536-34.242-71.349-70.555-108.253-106.776l-4.728-4.627c-30.592-29.867-35.883-37.077-35.883-48.683 0-11.648 5.248-18.773 36.779-49.493 16.811-16.384 61.653-60.544 99.669-98.133 102.357-101.248 98.987-98.133 106.88-98.091 8.576 0.043 18.859 4.907 25.728 12.117 9.387 9.941 11.435 20.565 6.187 31.957-1.792 3.797-34.005 37.547-83.072 86.869-44.117 44.373-79.616 81.237-78.891 81.92 0.683 0.725 100.864 1.664 222.549 2.133 219.264 0.853 221.355 0.896 227.285 4.352 8.32 4.864 10.965 11.179 10.965 26.368s-2.645 21.504-10.965 26.368c-5.931 3.456-7.723 3.499-226.987 4.011-133.931 0.299-221.653 1.152-222.592 2.091-0.981 0.981 28.928 32.299 78.592 82.261 49.067 49.365 81.323 83.115 83.115 86.912 5.632 12.245 3.157 22.997-7.68 33.365-9.643 9.259-22.144 12.843-31.616 9.045z" />
<glyph unicode="&#xe920;" glyph-name="notification" d="M496.085 905.301c-53.002-6.919-95.471-45.182-108.517-95.317l-0.198-0.896c-1.255-5.598-2.562-10.168-4.089-14.635l0.292 0.982c-0.256-0.085-8.533-4.139-18.475-9.088-74.752-36.992-127.701-101.077-145.707-176.299-2.773-11.605-7.851-49.707-14.507-109.141-5.675-50.219-11.435-96.299-12.885-102.4-3.84-16.299-13.184-34.688-26.496-52.096-13.739-18.005-20.821-32.555-24.576-50.731-3.371-16.384-3.371-23.637 0-40.192 7.125-35.072 31.061-65.195 64.725-81.408 30.805-14.805 4.821-13.653 306.347-13.653s275.541-1.152 306.347 13.653c34.517 16.64 58.155 46.891 65.152 83.456 5.76 30.165-1.963 58.453-23.765 87.083-14.123 18.517-22.272 33.963-26.752 50.816-1.92 7.168-7.808 51.925-13.867 105.472-7.808 69.376-11.691 97.877-15.275 112.085-18.645 73.899-71.296 136.917-144.939 173.355 1.521-0.421-4.54 2.614-10.626 5.604l-7.848 3.484c-1.235 3.486-2.542 8.055-3.615 12.714l-0.182 0.939c-3.085 10.86-6.703 20.164-11.069 29.033l0.445-1.001c-5.845 11.776-10.283 17.579-23.509 30.805-13.867 13.952-18.603 17.493-32.469 24.277-17.043 8.833-37.207 14.013-58.581 14.013-5.414 0-10.75-0.332-15.989-0.978l0.628 0.063zM538.837 836.352c12.885-5.803 26.155-19.115 32.213-32.384 2.987-6.571 4.651-14.123 5.632-25.515 1.877-22.272 7.509-30.123 26.496-37.12 69.504-25.429 122.88-81.152 138.411-144.427 2.603-10.667 7.765-49.493 14.421-108.459 5.717-50.475 11.52-96.811 12.971-102.955 5.76-24.917 18.56-51.584 35.029-73.173 13.397-17.536 16.811-24.96 16.853-36.693 0.043-18.432-12.117-35.328-32.384-45.013l-11.093-5.333h-530.773l-10.24 4.779c-20.267 9.472-33.28 27.307-33.237 45.568 0.043 11.776 3.456 19.243 16.939 36.693 14.202 19.258 25.554 41.679 32.836 65.863l0.401 1.55c2.987 11.392 7.339 43.563 14.635 108.373 6.699 59.307 11.861 98.091 14.464 108.8 13.568 55.296 55.381 104.661 112.683 133.035 8.448 4.181 20.011 9.344 25.728 11.392 18.987 6.997 24.619 14.848 26.496 37.12 1.664 19.669 6.357 30.933 18.005 43.435 13.696 14.635 28.544 20.608 49.237 19.797 10.496-0.427 16.085-1.621 24.277-5.333zM368.939 135.509c-9.173-4.908-15.613-13.89-16.923-24.462l-0.016-0.157c-1.877-16.768 17.408-51.115 41.813-74.453 32.384-30.933 71.723-46.379 118.187-46.379 46.293 0 85.803 15.445 117.888 46.123 21.973 20.949 42.667 55.424 42.368 70.485-0.384 23.211-22.912 38.528-43.819 29.781-9.557-4.011-13.696-8.789-21.248-24.661-13.895-27.603-38.864-47.903-68.915-55.234l-0.717-0.148c-7.435-1.652-15.974-2.598-24.734-2.598-19.147 0-37.238 4.521-53.265 12.552l0.687-0.312c-16.597 8.704-34.816 27.947-43.989 46.464-9.6 19.499-16.213 25.259-30.165 26.155-1.122 0.159-2.419 0.249-3.737 0.249-4.917 0-9.539-1.262-13.56-3.48l0.145 0.073z" />
<glyph unicode="&#xe921;" glyph-name="plus-rounded" d="M481.28 958.848c-75.584-5.696-139.648-23.488-204.096-56.704-127.667-66.59-222.093-182.116-259.223-321.051l-0.809-3.557c-13.696-53.12-18.176-99.008-15.424-159.424 4.8-106.112 45.952-210.88 116.416-296.576 17.28-20.928 57.728-60.416 78.144-76.16 109.696-84.8 243.84-122.048 378.624-105.088 93.798 12.22 177.49 48.019 247.204 101.205l-1.252-0.917c26.432 19.84 70.656 62.784 91.136 88.512 78.144 98.304 118.72 226.24 110.592 348.352-7.232 108.928-43.456 203.968-110.016 288.512-25.544 30.234-52.638 57.368-81.818 82.119l-0.998 0.825c-66.084 52.624-146.912 89.573-235.32 103.925l-2.952 0.395c-16.576 2.688-93.504 7.616-100.8 6.464-1.952-0.237-5.196-0.533-8.455-0.775l-0.953-0.057zM558.080 893.376c77.952-7.104 156.352-37.952 222.336-87.424 23.936-17.92 66.688-59.648 83.52-81.472 44.608-57.984 72.96-119.296 86.592-187.136 6.656-33.408 8.64-54.272 8.576-91.648 0.006-0.878 0.010-1.918 0.010-2.958 0-81.728-22.729-158.148-62.211-223.283l1.081 1.921c-69.82-117.499-188.827-199.498-327.902-217.803l-2.274-0.245c-16.722-1.559-36.161-2.448-55.808-2.448s-39.086 0.889-58.28 2.629l2.472-0.181c-83.722 11.026-158.283 43.584-219.926 91.877l0.982-0.741c-24.758 20.558-46.991 42.101-67.482 65.224l-0.55 0.632c-51.226 60.828-86.95 136.316-100.142 219.31l-0.338 2.578c-4.224 26.816-4.224 104.768 0 131.584 15.477 98.729 61.034 184.804 126.848 250.624v0c74.176 74.24 168.448 118.528 275.456 129.6 11.131 0.523 24.177 0.82 37.293 0.82 17.501 0 34.879-0.53 52.117-1.575l-2.37 0.115zM503.936 702.336c-8.68-2.788-15.786-8.421-20.389-15.78l-0.091-0.156c-2.688-4.928-3.008-14.592-3.584-105.472l-0.64-99.968-98.368-1.024c-63.040-0.64-100.672-1.728-104.704-2.88-11.904-3.52-21.952-21.504-19.456-34.752 0.576-3.2 3.392-9.088 6.272-12.992 9.472-13.12 5.504-12.672 116.992-13.376l99.264-0.704 0.704-99.264c0.704-109.888 0.448-107.264 11.84-115.904 6.123-4.699 13.894-7.529 22.326-7.529 1.243 0 2.472 0.062 3.683 0.182l-0.153-0.012c4.986 1.354 9.342 3.508 13.16 6.346l-0.104-0.074c13.12 9.472 12.672 5.504 13.376 116.992l0.704 99.264 99.264 0.704c109.888 0.704 107.264 0.448 115.904 11.84 4.57 5.363 7.35 12.374 7.35 20.034 0 2.705-0.347 5.329-0.998 7.83l0.048-0.215c-2.816 10.176-10.624 19.328-18.496 21.632-4.032 1.152-41.664 2.24-104.704 2.88l-98.368 1.024-0.64 99.968c-0.576 89.856-0.96 100.544-3.52 105.344-4.357 7.528-11.239 13.185-19.465 15.866l-0.247 0.070c-2.578 0.957-5.555 1.51-8.662 1.51-2.971 0-5.824-0.506-8.477-1.437l0.179 0.055z" />
<glyph unicode="&#xe922;" glyph-name="search" d="M471.040 906.027c-162.863-7.725-301.722-103.298-370.905-240.099l-1.148-2.504c-53.205-106.965-60.117-229.803-19.328-343.424 35.029-97.493 106.752-181.376 199.509-233.344 70.741-39.68 158.72-59.52 238.507-53.76 106.283 7.637 196.011 46.933 275.755 120.832 25.984 24.064 59.776 68.053 79.957 104.107 39.637 70.869 59.563 159.488 53.717 239.104-7.979 109.141-51.712 205.739-127.445 281.344-70.528 70.4-163.797 115.243-260.352 125.227-16.774 1.684-36.252 2.645-55.955 2.645-4.329 0-8.648-0.046-12.955-0.139l0.643 0.011zM528.725 840.448c142.336-15.36 262.315-108.16 311.68-241.024 14.762-38.585 23.311-83.214 23.311-129.839 0-103.072-41.779-196.386-109.327-263.931v0c-66.859-67.463-159.548-109.231-261.992-109.231-0.609 0-1.217 0.001-1.825 0.004h0.094c-0.165 0-0.36 0-0.555 0-205.644 0-372.352 166.708-372.352 372.352 0 0.195 0 0.39 0 0.585v-0.030c0 99.627 38.784 193.365 109.184 263.723 58.204 58.326 135.607 97.473 221.922 107.152l1.694 0.154c11.864 1.016 25.674 1.595 39.619 1.595 13.567 0 27.005-0.548 40.295-1.624l-1.748 0.114zM839.339 133.888c-14.891-7.851-21.205-27.264-13.611-41.856 4.992-9.6 93.355-97.195 101.376-100.523 3.718-1.678 8.060-2.656 12.63-2.656 17.32 0 31.36 14.040 31.36 31.36 0 0.094 0 0.187-0.001 0.281v-0.014c-0.135 5.163-1.332 10.014-3.379 14.387l0.093-0.222c-4.864 9.301-93.355 96.896-101.205 100.139-3.733 1.526-8.065 2.412-12.604 2.412-5.328 0-10.37-1.221-14.863-3.397l0.203 0.089z" />
<glyph unicode="&#xe923;" glyph-name="send" d="M38.4 928.64c-11.284-3.794-20.602-10.939-27.020-20.239l-0.116-0.177c-11.456-16.768-11.264-13.888-11.264-166.848 0-133.44 0.128-138.048 3.456-148.864 4.288-14.016 16.384-28.032 28.48-33.152 5.952-2.496 105.344-17.856 368.256-56.768 198.080-29.376 360.704-53.888 361.344-54.464s-161.344-25.024-359.936-54.4c-274.304-40.576-363.2-54.272-369.472-56.96-13.548-6.881-23.792-18.624-28.556-32.878l-0.116-0.402c-3.328-10.816-3.456-15.424-3.456-148.864 0-153.088-0.192-150.080 11.328-166.976 11.84-17.344 31.744-25.6 49.92-20.736 5.248 1.408 211.84 98.88 459.072 216.64 326.72 155.648 451.392 215.808 456.576 220.352 11.859 10.978 19.258 26.627 19.258 44.005 0 3.765-0.347 7.449-1.012 11.021l0.057-0.37c-4.608 22.144-13.952 33.6-36.544 44.608-84.8 41.216-889.664 423.744-895.36 425.472-3.708 1.338-7.988 2.111-12.448 2.111s-8.74-0.773-12.712-2.193l0.264 0.082z" />
<glyph unicode="&#xe924;" glyph-name="service" d="M219.648 936.064c-29.525-2.645-54.315-8.32-63.915-14.592-3.328-2.176-3.627-3.115-2.005-6.315 1.067-2.091 33.621-35.285 72.363-73.771s71.808-72.661 73.515-75.947c3.755-7.296 4.224-25.173 0.939-34.987-1.749-5.205-9.685-14.165-33.237-37.589-17.024-16.939-35.755-33.963-41.6-37.888-16.939-11.179-36.608-13.525-49.109-5.76-5.333 3.285-33.579 29.013-85.163 77.483-41.472 38.955-65.195 59.221-69.376 59.221-12.757 0-22.997-71.381-16.171-112.853 7.979-48.683 29.995-90.667 66.475-126.976 46.763-46.464 97.92-66.773 176.256-70.016l29.355-1.237 106.411-101.717c341.205-326.187 410.155-390.827 426.325-399.445 5.205-2.773 16.341-7.168 24.747-9.771 14.208-4.352 17.536-4.693 45.184-4.736 29.44-0.085 30.080 0 46.037 5.547 19.328 6.699 30.379 12.8 46.72 25.813 20.608 16.384 41.259 47.189 45.611 68.053 1.152 5.547 1.664 21.845 1.323 41.216l-0.597 32-9.216 18.517c-9.003 18.091-9.856 19.157-42.667 52.523-35.243 35.797-112.725 110.677-341.717 329.984l-139.264 133.419-0.896 38.912c-1.067 43.691-3.499 57.131-15.744 86.784-29.611 71.509-96.384 125.397-175.403 141.483-16.384 3.371-52.992 4.651-75.179 2.645zM875.52 935.851c-18.56-3.072-36.736-14.208-67.029-41.088-34.091-30.208-150.784-140.971-210.261-199.552l-40.96-40.363 6.741-9.813c6.699-9.685 23.339-25.003 30.976-28.501 2.944-1.323 4.864-1.152 7.808 0.811 9.728 6.357 55.808 48.939 146.432 135.211 80.555 76.715 84.864 80.768 103.296 97.195 17.323 15.488 30.379 24.917 34.475 24.917 3.968 0 5.419-7.168 2.603-12.672-3.328-6.571-49.493-52.693-128.384-128.256-78.592-75.307-138.069-133.717-140.203-137.6-1.195-2.304 0.427-5.291 7.467-13.568 9.515-11.221 32.512-32.171 35.328-32.171 2.517 0 53.077 46.933 143.445 133.077 96.981 92.501 137.472 129.749 140.971 129.749 2.816 0 12.629-8.917 12.629-11.477 0-2.176-73.899-74.965-143.36-141.227-32.384-30.933-75.307-72.448-95.36-92.245l-36.437-36.053 2.603-5.035c2.816-5.419 29.184-31.531 35.029-34.645 3.883-2.091 10.325 3.456 77.056 66.389 126.805 119.552 191.787 183.637 207.829 204.885 13.995 18.56 14.933 22.187 14.933 58.112v31.744l-8.405 16.896c-6.997 14.123-10.795 19.285-23.040 31.531-15.097 15.632-34.525 26.99-56.349 32.143l-0.782 0.156c-14.635 3.712-41.557 4.352-59.051 1.451zM336.213 337.536c-17.28-15.147-49.493-45.269-98.219-91.776l-44.672-42.667-27.648-5.547c-15.189-3.072-30.592-7.083-34.219-8.96-9.643-4.907-20.949-18.645-50.688-61.568-29.867-43.179-75.776-111.403-78.848-117.205-1.621-3.072-1.493-4.864 0.853-9.344 3.925-7.595 29.269-32.384 38.869-38.016l7.851-4.565 11.093 6.101c33.195 18.219 156.288 96.939 178.773 114.304 2.133 1.664 4.736 10.752 8.917 31.659l5.931 29.355 26.923 25.941c90.581 87.253 126.763 123.648 126.763 127.488 0 2.773-35.627 38.997-47.104 47.872-4.779 3.669-9.771 6.699-11.093 6.699s-7.381-4.395-13.483-9.771zM909.909 149.461c12.544-4.736 21.248-11.733 29.141-23.424 24.747-36.48 8.491-83.371-33.365-96.384-16.725-5.163-39.168-4.053-52.139 2.603-12.99 7.162-23.333 17.738-30.015 30.528l-0.193 0.405c-4.523 9.216-4.992 11.861-4.992 27.264 0 15.829 0.384 17.792 5.376 27.349 8.405 16.043 23.040 27.904 42.411 34.389 9.643 3.2 31.744 1.835 43.776-2.731z" />
<glyph unicode="&#xe925;" glyph-name="trash" d="M454.208 905.088c-27.129-4.922-50.6-18.027-68.371-36.625l-0.045-0.047c-4.032-4.544-19.52-26.496-34.432-48.704l-27.072-40.512-205.952-0.96-7.168-4.736c-9.108-5.55-15.097-15.428-15.097-26.705 0-3.142 0.465-6.176 1.33-9.036l-0.057 0.221c3.419-10.224 11.198-18.171 21.071-21.748l0.241-0.076c9.664-2.688 777.024-2.688 786.688 0 10.114 3.653 17.893 11.6 21.241 21.58l0.071 0.244c0.808 2.639 1.273 5.673 1.273 8.815 0 11.277-5.989 21.155-14.959 26.627l-0.137 0.078-7.168 4.736-205.952 0.96-27.072 40.512c-14.912 22.208-30.4 44.16-34.432 48.704-18.2 19.211-42.496 32.483-69.78 36.713l-0.684 0.087c-15.808 2.24-97.984 2.112-113.536-0.128zM570.112 838.976c13.824-5.248 19.52-10.944 35.84-35.2 8.384-12.608 15.296-23.296 15.296-23.808 0-0.448-49.152-0.896-109.248-0.896s-109.248 0.448-109.248 0.896c0 0.512 6.912 11.2 15.296 23.808 25.536 38.080 25.984 38.272 93.504 38.4 45.248 0.064 50.688-0.256 58.56-3.2zM205.248 649.472c-8.657-2.835-15.749-8.455-20.389-15.781l-0.091-0.155c-2.816-5.12-3.072-19.84-3.52-226.496-0.512-227.904-0.256-239.040 6.4-265.152 9.472-36.864 24.96-63.36 53.888-92.352 35.008-35.008 71.168-52.864 119.104-58.88 18.624-2.368 284.096-2.368 302.72 0 47.936 6.016 84.096 23.872 119.104 58.88 28.928 28.992 44.416 55.488 53.888 92.352 6.656 26.112 6.912 37.248 6.4 265.152-0.512 219.2-0.512 221.056-4.032 226.944-2.907 4.285-6.409 7.91-10.437 10.858l-0.123 0.086c-6.016 4.224-8.832 5.056-17.472 5.056-8.704 0-11.52-0.832-17.472-5.056-4.173-3.035-7.696-6.659-10.527-10.794l-0.097-0.15c-3.456-5.888-3.52-8-4.352-237.184l-0.832-231.232-5.568-16c-8.064-23.040-17.408-38.016-34.432-54.976-14.828-15.574-33.352-27.492-54.173-34.358l-0.931-0.266-15.872-5.376h-308.864l-15.872 5.376c-21.752 7.132-40.276 19.050-55.053 34.57l-0.051 0.054c-15.461 14.725-27.292 33.12-34.104 53.796l-0.264 0.924-5.632 16.256-0.832 231.232c-0.832 229.184-0.896 231.296-4.352 237.184-6.169 9.793-16.924 16.205-29.176 16.205-2.473 0-4.884-0.261-7.209-0.757l0.225 0.040zM418.56 521.472c-8.657-2.835-15.749-8.455-20.389-15.781l-0.091-0.155c-2.752-5.056-3.008-15.616-3.456-139.136-0.32-89.408 0.128-135.808 1.344-140.288 3.783-13.529 16.002-23.287 30.499-23.287 8.831 0 16.816 3.621 22.552 9.458l0.004 0.005c3.641 3.663 6.468 8.139 8.183 13.133l0.073 0.243c1.344 5.056 1.728 46.144 1.408 140.736-0.448 131.2-0.512 133.76-3.968 139.584-6.169 9.793-16.924 16.205-29.176 16.205-2.473 0-4.884-0.261-7.209-0.757l0.225 0.040zM589.248 521.472c-8.657-2.835-15.749-8.455-20.389-15.781l-0.091-0.155c-2.752-5.056-3.072-15.616-3.456-139.136-0.32-89.408 0.128-135.808 1.28-140.288 3.81-13.528 16.039-23.278 30.545-23.278 8.835 0 16.825 3.616 22.571 9.45l0.004 0.004c3.625 3.662 6.432 8.14 8.121 13.134l0.071 0.242c1.408 5.056 1.792 46.144 1.472 140.736-0.448 131.2-0.512 133.76-3.968 139.584-6.169 9.793-16.924 16.205-29.176 16.205-2.473 0-4.884-0.261-7.209-0.757l0.225 0.040z" />
<glyph unicode="&#xe926;" glyph-name="true" d="M860.736 750.784c-11.52-5.696-47.616-40.768-248.128-240.768l-207.424-206.976-67.328 67.52c-77.376 77.568-116.416 114.88-127.616 121.984-15.104 9.6-34.56 5.248-51.712-11.52-15.232-14.912-20.48-33.088-13.568-47.296 4.608-9.536 27.584-33.984 109.12-116.032 74.496-74.88 122.368-120.832 133.184-127.68 4.385-3.114 9.848-4.978 15.746-4.978 0.878 0 1.747 0.041 2.604 0.122l-0.11-0.008c9.792 0 11.264 0.576 20.672 7.424 5.504 4.096 33.856 30.528 62.848 58.624 66.176 64.128 398.528 397.824 417.792 419.456 19.2 21.568 22.080 32 13.696 49.92-4.16 8.768-20.224 24.576-29.76 29.184-4.747 2.28-10.319 3.613-16.204 3.613-4.969 0-9.717-0.95-14.070-2.679l0.258 0.090z" />
<glyph unicode="&#xe927;" glyph-name="client-protection" d="M478.054 855.066c-5.99-1.357-14.822-3.763-19.61-5.325-9.856-3.226-216.858-94.848-235.571-104.269-48.333-24.32-80.077-65.971-89.907-117.99-2.739-14.387-1.075-62.003 3.482-100.966 23.808-203.059 90.675-310.886 271.437-437.683 40.499-28.39 65.715-37.478 104.115-37.478 38.426 0 63.642 9.088 104.115 37.504 155.136 108.877 224.435 204.621 256.794 354.867 11.597 53.811 20.864 135.245 19.072 167.27-3.174 56.115-37.862 107.776-90.035 134.042-29.312 14.771-229.76 102.707-243.533 106.854-12.749 3.84-18.688 4.557-42.138 5.043-19.482 0.41-30.438-0.128-38.221-1.869zM657.766 559.258c12.749-8.781 17.306-26.906 10.163-40.32-3.584-6.733-123.366-144.128-134.067-153.805-3.814-3.456-12.032-8.653-18.227-11.546-20.864-9.779-51.558-7.808-69.274 4.403-18.918 13.056-86.707 69.018-89.958 74.266-8.192 13.261-3.482 32.384 10.368 42.189 6.067 4.275 8.781 5.069 16.947 4.966 5.35-0.077 11.469-1.075 13.619-2.227 2.176-1.152 21.043-15.795 41.984-32.512 20.941-16.742 39.731-31.334 41.779-32.41 2.048-1.101 5.274-1.51 7.168-0.896 1.869 0.589 30.336 31.923 63.232 69.632 64.333 73.728 70.784 80.512 78.925 82.97 8.141 2.483 19.866 0.461 27.341-4.71z" />
<glyph unicode="&#xe928;" glyph-name="current-agreements" d="M282.445 873.626l-12.723-2.586c-37.427-7.603-74.189-38.682-89.088-75.264-10.342-25.421-9.958-15.155-9.958-269.978v-232.934l12.365 9.318c15.76 11.547 33.839 21.368 53.182 28.599l1.551 0.508c27.827 9.498 16.947 9.19 328.218 9.19h287.334v209.126c0 228.685 0.333 220.902-9.958 246.17-11.392 28.006-34.253 51.891-62.72 65.587-27.853 13.389-5.35 12.314-263.526 12.646-127.181 0.179-232.781 0-234.675-0.384zM657.766 687.232c12.774-8.73 17.382-26.726 10.291-40.038-3.686-6.912-123.238-144.154-134.195-154.061-3.814-3.456-12.032-8.678-18.227-11.622-10.547-4.992-12.595-5.35-30.080-5.35-17.459 0-19.558 0.384-29.952 5.299-16.384 7.757-95.462 71.296-99.84 80.205-6.938 14.157-2.278 31.386 11.008 40.781 6.067 4.275 8.781 5.069 16.947 4.966 5.35-0.077 11.469-1.075 13.619-2.227 2.176-1.152 21.197-15.923 42.317-32.794s40.192-31.488 42.368-32.486c2.79-1.28 4.966-1.254 7.475 0.077 1.92 1.050 32 34.458 66.842 74.266 60.416 69.043 66.944 75.622 77.696 78.336 6.426 1.613 17.050-0.768 23.731-5.35zM282.445 276.275c-17.766-3.507-23.398-5.043-32.333-8.832-31.539-13.389-57.216-38.886-69.478-68.992-6.168-14.478-9.754-31.32-9.754-48.999 0-61.832 43.86-113.42 102.165-125.35l0.825-0.141c11.059-2.278 41.882-2.637 238.131-2.637 246.502 0 237.082-0.358 262.374 9.958 29.901 12.16 56.832 39.117 69.018 68.992 9.19 22.605 9.933 30.618 9.933 107.008v70.042l-283.725-0.179c-156.058-0.128-285.261-0.512-287.155-0.87z" />
<glyph unicode="&#xe929;" glyph-name="documentary-support" d="M197.12 873.626l-12.723-2.586c-37.427-7.603-74.189-38.682-89.088-75.264-10.496-25.779-9.984-7.475-9.984-347.776s-0.512-321.997 9.984-347.776c12.262-30.131 38.784-56.653 68.915-68.915 25.856-10.522 6.4-9.984 357.53-9.83 260.147 0.128 318.822 0.538 311.706 2.278-27.52 6.682-50.176 27.238-60.902 55.322l-3.712 9.677-0.896 340.48c-0.973 371.584-0.154 342.426-10.419 367.795-11.392 28.109-38.477 54.938-68.045 67.354-23.654 9.958-6.195 9.293-257.69 9.626-127.206 0.179-232.806 0-234.675-0.384zM613.222 688.845c10.291-6.374 15.181-15.155 15.283-27.494 0.077-8.832-0.666-11.469-4.89-17.485-2.739-3.917-7.68-8.678-10.957-10.598-5.888-3.482-7.603-3.507-185.984-3.507s-180.122 0.026-186.010 3.507c-4.293 2.916-7.922 6.431-10.871 10.475l-0.086 0.124c-12.186 17.331-2.304 43.29 18.381 48.282 2.944 0.717 84.838 1.178 181.99 1.024l176.64-0.256 6.502-4.070zM831.539 373.581c0.538-280.986-1.075-254.515 16.563-272.179 11.213-11.238 22.579-15.846 38.733-15.718 19.277 0.128 37.862 12.237 46.848 30.49l4.122 8.422 0.512 207.36c0.358 149.222-0.026 210.227-1.408 217.6-5.504 29.056-27.29 54.093-55.987 64.282-6.656 2.381-15.949 3.738-29.747 4.378l-20.096 0.922 0.461-245.555zM613.222 475.52c10.342-6.426 15.411-15.514 15.411-27.674 0-8.525-0.845-11.366-5.018-17.306-2.739-3.917-7.68-8.704-10.957-10.624-5.888-3.456-7.603-3.482-185.984-3.482s-180.122 0.026-186.010 3.482c-4.292 2.925-7.922 6.448-10.87 10.499l-0.087 0.125c-12.186 17.331-2.304 43.264 18.381 48.282 2.944 0.717 84.838 1.178 181.99 1.024l176.64-0.282 6.502-4.045zM442.573 262.195c10.342-6.426 15.386-15.514 15.386-27.674 0-8.525-0.819-11.366-4.992-17.331-2.765-3.917-7.68-8.678-10.957-10.598-5.811-3.405-8.294-3.507-100.685-3.507-92.365 0-94.848 0.102-100.659 3.507-4.293 2.916-7.922 6.431-10.871 10.475l-0.086 0.124c-12.186 17.331-2.33 43.238 18.381 48.307 2.944 0.717 46.438 1.178 96.666 1.024l91.29-0.282 6.528-4.045z" />
<glyph unicode="&#xe92a;" glyph-name="financing" d="M408.986 872.064c-30.976-7.834-56.883-33.818-64.947-65.050-5.222-20.301-2.534-41.19 7.834-60.646l5.299-9.933h309.658l5.299 9.933c10.317 19.354 12.877 38.784 7.91 59.878-7.552 32.026-34.125 58.342-66.662 65.997-17.997 4.25-32.538 2.483-64.768-7.859-35.226-11.29-38.016-11.29-73.293 0.051-31.411 10.086-48.768 12.083-66.33 7.629zM344.115 660.198c-39.322-26.368-73.19-66.867-91.546-109.414-8.166-18.918-65.331-201.523-70.042-223.667-2.074-9.805-3.891-26.547-4.48-41.242-1.766-44.365 6.195-80.666 26.778-122.035 38.426-77.261 108.109-127.642 193.69-139.981 24.627-3.558 202.342-3.558 226.97 0 69.171 9.984 128.461 45.133 170.547 101.094 14.285 19.021 33.434 57.37 40.141 80.307 11.238 38.605 13.235 84.429 5.299 121.856-4.685 21.99-61.875 204.749-69.888 223.232-18.739 43.29-52.531 83.712-91.904 109.926l-16.973 11.29-301.747-0.051-16.845-11.315zM523.418 584.422c2.637-0.998 6.989-3.866 9.651-6.4 8.883-8.397 10.266-13.082 11.034-37.018l0.691-22.195 12.339-4.685c42.266-16.026 70.605-53.325 71.373-93.926 0.205-10.675-0.41-13.645-4.198-20.096-5.431-9.427-15.452-15.671-26.931-15.671-5.828 0-11.28 1.609-15.936 4.408l0.14-0.078c-8.704 5.094-14.234 14.157-15.821 25.958-1.562 11.571-8.294 25.216-14.976 30.31-13.773 10.47-19.661 12.365-38.784 12.365-15.616 0-18.893-0.538-25.6-4.096-12.749-6.784-18.381-11.981-22.963-21.146-8.090-16.256-4.403-32.41 10.394-45.44 10.163-8.934 19.635-11.93 44.134-13.978 35.277-2.893 58.266-13.030 81.075-35.661 20.506-20.378 29.619-42.573 29.491-71.808-0.179-42.65-27.955-80.256-71.398-96.742l-12.339-4.659-0.691-22.195c-0.768-23.962-2.15-28.621-11.034-37.018-5.137-5.091-12.21-8.237-20.017-8.237-0.37 0-0.738 0.007-1.104 0.021l0.053-0.002c-8.576 0-15.053 2.509-21.069 8.218-8.883 8.397-10.266 13.056-11.034 37.018l-0.691 22.195-12.339 4.659c-42.266 16.026-70.605 53.325-71.373 93.952-0.205 10.65 0.41 13.619 4.198 20.096 5.837 9.958 15.181 15.232 26.982 15.232 17.664 0 28.57-10.906 32.179-32.179 4.454-26.24 24.090-41.293 53.632-41.139 21.99 0.128 39.962 9.754 47.898 25.651 7.68 15.411 5.632 28.826-6.374 42.138-9.626 10.65-22.195 15.334-46.31 17.28-36.224 2.944-60.646 13.542-82.765 35.891-20.762 20.941-29.261 41.549-29.389 71.014-0.179 43.238 27.418 81.024 71.322 97.664l12.339 4.685 0.691 22.195c0.768 23.936 2.15 28.595 11.034 37.043 2.662 2.509 6.784 5.35 9.114 6.272 5.734 2.278 17.459 2.33 23.373 0.102z" />
<glyph unicode="&#xe92b;" glyph-name="logistic" d="M222.95 825.984c-32.691-6.63-60.083-21.12-85.248-45.082-22.835-21.76-39.014-49.741-47.821-82.662-3.686-13.85-3.686-14.080-3.686-210.125v-196.275l3.738-13.978c8.474-31.77 20.787-54.195 42.138-76.774 21.094-22.323 20.301-22.144 25.779-5.76 5.018 15.078 16.947 36.070 27.904 49.075 16.589 19.661 44.826 37.453 72.806 45.875 13.568 4.096 18.176 4.634 39.245 4.608 19.072 0 26.65-0.742 37.555-3.686 37.965-10.24 71.014-34.611 90.24-66.56 11.187-18.534 19.533-43.315 21.146-62.694l1.254-15.181h128l0.486 255.155c0.512 264.781 0.23 277.018-6.605 302.080-13.722 50.202-54.605 95.539-102.221 113.408-27.981 10.496-22.81 10.086-132.301 10.522-80.512 0.333-103.040-0.051-112.41-1.946zM640 440.755l0.026-217.19 4.685 6.938c20.275 30.003 54.605 53.478 90.010 61.619 19.251 4.403 51.456 4.019 69.965-0.87 30.413-8.013 60.698-27.75 80.051-52.147 12.186-15.334 18.586-27.571 25.549-48.845l5.683-17.382 6.963 10.445c3.84 5.734 8.755 14.848 10.931 20.224l3.942 9.779v132.275c0 148.557 0.589 141.235-12.851 162.022-7.322 11.341-129.050 126.643-144.742 137.114-18.432 12.288-24.166 13.184-85.786 13.184h-54.426v-217.165zM276.48 228.915c-17.715-5.325-33.715-15.795-44.083-28.8-44.698-56.269-5.402-138.189 66.278-138.189 64.691 0 105.344 67.917 74.854 125.107-9.037 16.998-24.55 30.72-44.134 39.066-11.674 4.966-40.627 6.528-52.915 2.816zM745.805 228.915c-24.218-7.27-43.008-22.682-53.965-44.186-18.176-35.738-7.629-81.229 24.499-105.626 24.090-18.304 54.118-22.426 83.405-11.469 20.582 7.68 39.91 27.802 48.461 50.406 5.248 13.824 6.323 34.074 2.611 48.358-7.219 27.699-25.088 48.179-52.096 59.699-11.674 4.966-40.627 6.528-52.915 2.816z" />
<glyph unicode="&#xe92c;" glyph-name="logistic-peoples" d="M280.755 872.653c-37.274-7.091-67.43-44.365-67.43-83.328 0-38.323 28.288-74.138 65.459-82.816 9.856-2.33 9.6-2.432-12.339-5.786-40.166-6.093-75.699-28.416-89.318-56.090-5.018-10.189-5.606-12.928-5.606-25.958s0.589-15.795 5.606-25.984c10.291-20.915 30.95-37.632 59.802-48.384 38.528-14.362 84.966-14.362 123.469 0 28.851 10.752 49.51 27.469 59.802 48.384 5.018 10.189 5.606 12.954 5.606 25.984s-0.589 15.77-5.606 25.958c-13.619 27.674-49.152 49.997-89.318 56.090-21.939 3.354-22.195 3.456-12.339 5.786 14.899 3.482 28.032 11.008 40.013 22.963 33.971 33.894 33.971 85.786 0 119.757-20.941 20.941-48.051 29.107-77.798 23.424zM503.91 862.746c-22.118-5.197-31.232-33.613-16.41-51.2 7.603-9.037 12.928-10.675 39.629-12.237 29.85-1.715 51.2-5.018 76.851-11.827 119.373-31.693 215.834-128.154 247.526-247.526 6.784-25.626 10.086-46.976 11.802-76.826 1.562-26.701 3.2-32.026 12.237-39.629 5.503-4.581 12.645-7.361 20.437-7.361 9.814 0 18.598 4.411 24.478 11.359l0.039 0.047c6.912 8.218 8.474 16.947 7.142 39.936-7.782 135.014-74.829 252.723-186.624 327.501-51.533 34.483-119.501 59.187-181.222 65.843-23.398 2.534-49.485 3.43-55.885 1.92zM119.91 478.797c-7.296-1.766-16.794-9.165-20.506-15.949-2.432-4.48-2.944-9.446-2.765-27.648 0.819-81.843 31.283-168.090 84.48-239.258 16.077-21.504 57.318-62.746 78.822-78.822 43.108-32.763 93.991-57.911 149.217-72.302l2.975-0.658c35.789-9.062 93.645-14.899 108.339-10.906 26.368 7.142 31.693 42.112 8.704 57.318-6.298 4.173-8.832 4.634-32.922 5.99-39.578 2.227-73.856 9.114-106.803 21.427-118.272 44.186-204.954 149.837-224.717 273.92-1.695 11.265-3.145 25.456-4.003 39.806l-0.067 1.41c-1.613 28.058-3.405 32.973-14.822 40.755-5.248 3.573-11.726 5.705-18.702 5.705-2.562 0-5.057-0.288-7.455-0.832l0.225 0.043zM750.106 360.653c-37.299-7.091-67.43-44.365-67.43-83.328 0-38.323 28.288-74.138 65.434-82.816 9.882-2.33 9.626-2.432-12.339-5.786-40.166-6.093-75.674-28.416-89.318-56.090-4.992-10.189-5.606-12.928-5.606-25.958s0.614-15.795 5.606-25.984c10.317-20.915 30.95-37.632 59.802-48.384 38.528-14.362 84.966-14.362 123.494 0 28.851 10.752 49.485 27.469 59.802 48.384 4.992 10.189 5.606 12.954 5.606 25.984s-0.614 15.77-5.606 25.958c-13.645 27.674-49.152 49.997-89.318 56.090-21.965 3.354-22.221 3.456-12.339 5.786 30.72 7.194 57.062 34.304 63.565 65.408 5.914 28.39-2.611 56.346-23.578 77.312-20.941 20.941-48.051 29.107-77.773 23.424z" />
<glyph unicode="&#xe92d;" glyph-name="logistic-calendar" d="M333.261 905.472c-7.322-1.792-16.794-9.165-20.506-15.949-2.534-4.634-3.072-11.136-3.533-42.342l-0.538-36.89-20.813-0.947c-43.392-2.022-81.382-19.558-112.077-51.789-33.536-35.2-47.795-72.909-47.795-126.31v-22.81h768v22.81c0 53.402-14.259 91.11-47.795 126.31-30.694 32.23-68.685 49.766-112.077 51.789l-20.813 0.947-0.538 36.89c-0.614 41.856-1.306 44.39-14.643 53.786-5.965 4.198-8.781 4.992-17.459 4.992-8.704 0-11.494-0.794-17.485-4.992-13.338-9.395-14.029-11.904-14.643-54.042l-0.538-37.12h-276.019l-0.538 37.12c-0.486 33.766-0.87 37.658-4.045 43.085-7.014 11.93-22.861 18.714-36.147 15.462zM128.41 353.715l0.538-189.875 4.71-16.128c18.765-64.256 67.61-109.747 131.994-122.854 17.024-3.456 21.53-3.533 246.349-3.533s229.325 0.077 246.349 3.533c64.666 13.184 114.534 59.955 132.173 123.981l4.608 16.717 0.486 189.005 0.461 189.005h-768.179l0.512-189.85zM355.84 359.834c15.744-5.35 28.16-22.912 28.16-39.834 0-22.502-20.173-42.675-42.675-42.675-10.291 0-22.246 5.094-29.901 12.774-7.734 7.62-12.525 18.207-12.525 29.914 0 11.719 4.802 22.317 12.545 29.933l0.006 0.006c11.853 11.853 28.058 15.462 44.39 9.882zM526.515 359.834c15.744-5.35 28.16-22.912 28.16-39.834 0-22.502-20.173-42.675-42.675-42.675-10.317 0-22.246 5.094-29.901 12.774-7.734 7.62-12.525 18.207-12.525 29.914 0 11.719 4.802 22.317 12.545 29.933l0.006 0.006c11.853 11.853 28.058 15.462 44.39 9.882zM702.515 357.35c16.742-8.602 25.472-27.878 21.248-46.771-7.245-32.358-47.514-43.981-70.963-20.531-7.765 7.624-12.577 18.232-12.577 29.965 0 11.72 4.802 22.318 12.546 29.934l0.006 0.006c7.644 7.641 18.202 12.367 29.864 12.367 7.276 0 14.123-1.84 20.1-5.080l-0.223 0.111z" />
<glyph unicode="&#xe92e;" glyph-name="logistic-calendar_success" d="M333.261 905.472c-7.322-1.792-16.794-9.165-20.506-15.949-2.534-4.634-3.072-11.136-3.533-42.342l-0.538-36.89-20.813-0.947c-43.392-2.022-81.382-19.558-112.077-51.789-33.536-35.2-47.795-72.909-47.795-126.31v-22.81h768v22.81c0 53.402-14.259 91.11-47.795 126.31-30.694 32.23-68.685 49.766-112.077 51.789l-20.813 0.947-0.538 36.89c-0.614 41.856-1.306 44.39-14.643 53.786-5.965 4.198-8.781 4.992-17.459 4.992-8.704 0-11.494-0.794-17.485-4.992-13.338-9.395-14.029-11.904-14.643-54.042l-0.538-37.12h-276.019l-0.538 37.12c-0.486 33.766-0.87 37.658-4.045 43.085-7.014 11.93-22.861 18.714-36.147 15.462zM128.41 353.715l0.538-189.875 4.71-16.128c18.765-64.256 67.61-109.747 131.994-122.854 17.024-3.456 21.53-3.533 246.349-3.533s229.325 0.077 246.349 3.533c64.666 13.184 114.534 59.955 132.173 123.981l4.608 16.717 0.486 189.005 0.461 189.005h-768.179l0.512-189.85zM657.766 431.258c12.774-8.806 17.382-26.752 10.291-40.064-3.686-6.912-123.238-144.154-134.195-154.061-3.814-3.456-12.032-8.653-18.227-11.546-15.565-7.296-36.685-8.422-53.12-2.893-13.312 4.506-17.459 7.398-65.869 46.208-40.806 32.742-44.211 36.71-44.058 51.251 0.102 10.368 5.299 19.994 14.182 26.291 6.067 4.275 8.781 5.069 16.947 4.966 5.35-0.077 11.469-1.075 13.619-2.227 2.176-1.152 21.043-15.795 41.984-32.512 20.941-16.742 39.731-31.334 41.779-32.41 2.048-1.101 5.274-1.51 7.168-0.896 1.869 0.589 30.336 31.923 63.232 69.632 64.333 73.728 70.784 80.512 78.925 82.97 8.141 2.483 19.866 0.461 27.341-4.71z" />
<glyph unicode="&#xe92f;" glyph-name="logistic-documentation" d="M239.795 873.626l-12.723-2.586c-37.427-7.603-74.214-38.682-89.114-75.264-10.419-25.651-9.958-11.085-9.958-311.091 0-243.405 0.307-275.533 2.714-287.206 9.958-48.461 45.491-88.73 92.006-104.269 50.688-16.922 101.325-5.888 139.725 30.438 25.779 24.397 39.885 55.014 42.88 93.107 1.485 18.688 5.914 27.674 16.845 34.074l7.347 4.326h381.158v251.802c0 275.533 0.41 263.27-9.984 288.819-11.392 28.006-34.227 51.891-62.72 65.587-27.853 13.389-5.35 12.314-263.526 12.646-127.181 0.179-232.781 0-234.65-0.384zM655.898 688.845c10.342-6.426 15.386-15.488 15.386-27.648 0-8.55-0.819-11.392-4.992-17.331-2.765-3.917-7.68-8.678-10.957-10.598-5.888-3.482-7.629-3.507-186.010-3.507s-180.096 0.026-185.984 3.507c-4.298 2.909-7.929 6.425-10.871 10.474l-0.086 0.124c-12.186 17.331-2.304 43.29 18.381 48.282 2.944 0.717 84.838 1.178 181.99 1.024l176.64-0.256 6.502-4.070zM485.222 475.52c10.342-6.426 15.411-15.514 15.411-27.674 0-8.525-0.845-11.366-5.018-17.306-2.739-3.917-7.68-8.704-10.957-10.624-5.786-3.405-8.269-3.482-100.659-3.482s-94.874 0.077-100.659 3.482c-4.298 2.918-7.928 6.442-10.87 10.499l-0.086 0.125c-12.186 17.331-2.33 43.213 18.381 48.307 2.944 0.717 46.438 1.178 96.64 1.024l91.315-0.307 6.502-4.045zM497.306 189.235c-9.114-3.226-20.045-12.646-25.523-22.042-2.406-4.096-6.707-14.566-9.549-23.245-9.702-29.722-23.27-52.454-43.187-72.371-25.293-25.293-55.757-41.114-91.878-47.718-10.368-1.894 28.518-2.202 248.832-1.946l261.12 0.307 14.464 4.045c20.966 5.862 38.272 13.619 53.786 24.090 33.766 22.784 60.237 59.648 70.093 97.638 4.89 18.842-3.994 34.688-23.245 41.472-10.675 3.789-444.262 3.558-454.912-0.23z" />
<glyph unicode="&#xe930;" glyph-name="logistic-orders" d="M321.715 873.549c-69.939-9.114-125.542-57.037-145.382-125.261l-4.685-16.128-1.126-267.52 4.762 1.254c2.637 0.666 25.626 1.613 51.098 2.074 38.042 0.691 48.691 0.358 59.392-1.869 27.827-5.922 51.997-18.889 71.359-36.945l-0.088 0.081c6.912-6.502 25.421-29.158 44.57-54.579 34.79-46.208 43.674-55.296 63.462-64.947 13.714-6.771 29.857-10.732 46.925-10.732s33.211 3.961 47.56 11.014l-0.635-0.282c19.789 9.651 28.672 18.739 63.462 64.947 19.149 25.421 37.658 48.077 44.57 54.579 19.273 17.975 43.444 30.942 70.291 36.688l0.979 0.176c10.701 2.227 21.35 2.56 59.392 1.869 25.472-0.461 48.461-1.408 51.072-2.074l4.762-1.254-0.512 132.915-0.512 132.89-4.506 16.435c-11.136 40.448-35.354 74.906-68.454 97.382-14.541 9.882-39.117 21.12-55.91 25.6l-14.438 3.84-191.155 0.256c-105.114 0.128-193.434-0.051-196.25-0.41zM483.328 778.906c22.682-4.71 41.318-18.995 50.56-38.682l4.557-9.779 0.512-100.25 0.512-100.275h-54.323l-0.845 7.45c-1.894 16.742-15.002 33.126-33.434 41.779-8.653 4.045-11.699 4.531-28.467 4.531s-19.814-0.486-28.467-4.531c-12.672-5.965-24.192-16.742-29.286-27.469l-4.096-8.602-7.654 7.066c-5.141 5.151-9.607 10.979-13.252 17.337l-0.213 0.403-5.786 10.675v153.6l4.787 9.728c8.704 17.741 29.082 33.152 48.973 37.043 11.366 2.227 85.274 2.202 95.923-0.026zM622.618 713.805c8.525-4.634 54.733-42.163 61.722-50.125 2.739-3.123 5.453-8.192 6.016-11.264s0.794-26.701 0.512-52.531c-0.512-46.208-0.589-47.027-4.634-53.555l-4.122-6.63-2.714 6.81c-6.195 15.642-15.718 25.114-33.434 33.254-7.168 3.302-11.366 3.917-26.445 3.917-16.538 0-18.765-0.41-29.005-5.299-6.685-3.268-12.444-7.144-17.594-11.694l0.083 0.072-6.4-6.272v157.158h24.499c22.144 0 25.139-0.358 31.514-3.84zM439.475 557.645c11.981-5.914 17.92-14.822 17.92-26.982 0-32.486-50.125-43.29-66.406-14.31-3.968 7.040-4.787 19.994-1.664 26.061 8.653 16.768 32.358 23.987 50.15 15.232zM637.978 556.826c14.336-6.682 20.685-23.245 14.362-37.504-11.597-26.189-53.606-26.624-65.382-0.691-4.173 9.165-4.096 15.36 0.333 24.525 8.166 16.845 30.797 22.963 50.688 13.67zM194.278 403.584c-28.518-4.813-49.869-15.872-70.682-36.582-13.133-13.056-16.742-17.92-23.475-31.642-14.131-28.774-13.926-27.085-13.926-122.035 0-94.925-0.205-93.235 13.926-122.010 6.707-13.67 10.394-18.662 23.475-31.718 13.056-13.082 18.048-16.768 31.718-23.475 31.078-15.258-2.688-13.926 356.685-13.926s325.606-1.331 356.685 13.926c13.67 6.707 18.662 10.394 31.718 23.475 13.082 13.056 16.768 18.048 23.475 31.718 14.131 28.774 13.926 27.085 13.926 122.010 0 94.95 0.205 93.261-13.926 122.035-6.733 13.722-10.342 18.586-23.475 31.642-11.699 11.648-18.867 17.152-29.184 22.502-23.603 12.186-34.304 14.438-73.344 15.36-21.35 0.512-37.965 0.102-44.314-1.075-12.698-2.355-29.978-10.342-39.757-18.33-4.070-3.354-22.323-25.882-40.55-50.074-21.811-29.005-37.427-47.974-45.824-55.706-64.922-59.827-165.939-59.827-230.861 0-8.397 7.731-24.013 26.701-45.824 55.706-18.227 24.192-36.48 46.72-40.55 50.074-9.472 7.757-26.803 15.898-38.656 18.125-10.547 1.997-65.408 1.997-77.261 0z" />
<glyph unicode="&#xe931;" glyph-name="logistic-orders_spareparts" d="M314.803 872.192c-73.062-11.366-132.070-71.45-142.285-144.922-1.203-8.525-1.843-57.83-1.843-137.933v-124.646l4.122 1.050c16.973 4.25 70.605 5.734 97.254 2.688 22.379-3.028 42.592-10.020 60.716-20.276l-0.838 0.436c20.48-11.981 34.278-26.598 70.298-74.445 35.098-46.618 42.65-54.323 62.848-64.256 28.237-13.901 65.101-13.901 93.619 0 20.531 10.010 27.802 17.434 63.078 64.256 36.019 47.846 49.818 62.464 70.298 74.445 17.286 9.82 37.5 16.812 59.006 19.743l0.872 0.097c26.65 3.046 80.282 1.562 97.254-2.688l4.122-1.050v123.546c0 75.392-0.691 129.050-1.766 137.702-9.318 74.266-68.659 134.835-143.283 146.227-22.067 3.379-371.814 3.405-393.472 0.026zM540.339 777.549c9.088-4.122 13.978-11.238 16.205-23.526 2.125-11.776 4.941-16.614 12.288-21.094 6.938-4.224 15.386-4.173 24.858 0.128 12.8 5.811 25.574 4.019 34.918-4.838 5.862-5.581 21.299-30.72 23.45-38.221 2.816-9.856-0.87-18.125-13.184-29.619-9.242-8.653-11.213-11.494-11.981-17.254-1.229-9.088 2.765-16.998 11.853-23.603 9.139-6.656 13.773-14.72 13.773-24.038 0-10.726-18.842-41.933-28.877-47.821-8.73-5.12-20.787-5.35-31.181-0.64-9.395 4.275-16.666 4.275-23.629 0.051-7.347-4.48-10.163-9.318-12.288-21.094-3.866-21.299-12.851-26.701-44.544-26.701s-40.678 5.402-44.544 26.701c-2.125 11.776-4.941 16.614-12.288 21.094-6.963 4.224-14.234 4.224-23.629-0.051-10.394-4.71-22.451-4.48-31.181 0.64-10.035 5.888-28.877 37.094-28.877 47.821 0 9.318 4.634 17.382 13.773 24.038 9.088 6.605 13.082 14.515 11.853 23.603-0.768 5.76-2.739 8.602-11.981 17.254-12.314 11.494-16 19.763-13.184 29.619 2.15 7.501 17.587 32.64 23.45 38.221 9.344 8.858 22.118 10.65 34.918 4.838 9.472-4.301 17.92-4.352 24.858-0.128 7.347 4.48 10.163 9.318 12.288 21.094 3.866 21.299 12.851 26.701 44.544 26.701 17.152 0 22.707-0.614 28.339-3.174zM494.413 689.69c-22.758-8.474-37.248-31.36-34.816-54.989 1.894-18.304 12.544-33.485 29.261-41.702 22.502-11.085 49.613-4.966 64.512 14.566 6.952 8.858 11.149 20.166 11.149 32.455 0 20.479-11.656 38.235-28.696 46.997l-0.297 0.139c-9.267 4.787-31.386 6.144-41.114 2.534zM194.278 403.584c-28.518-4.813-49.869-15.872-70.682-36.582-13.133-13.056-16.742-17.92-23.475-31.642-14.131-28.774-13.926-27.085-13.926-122.035 0-94.925-0.205-93.235 13.926-122.010 6.707-13.67 10.394-18.662 23.475-31.718 13.056-13.082 18.048-16.768 31.718-23.475 31.078-15.258-2.688-13.926 356.685-13.926s325.606-1.331 356.685 13.926c13.67 6.707 18.662 10.394 31.718 23.475 13.082 13.056 16.768 18.048 23.475 31.718 14.131 28.774 13.926 27.085 13.926 122.010 0 94.95 0.205 93.261-13.926 122.035-6.733 13.722-10.342 18.586-23.475 31.642-11.699 11.648-18.867 17.152-29.184 22.502-23.603 12.186-34.304 14.438-73.344 15.36-21.35 0.512-37.965 0.102-44.314-1.075-12.698-2.355-29.978-10.342-39.757-18.33-4.070-3.354-22.323-25.882-40.55-50.074-21.811-29.005-37.427-47.974-45.824-55.706-64.922-59.827-165.939-59.827-230.861 0-8.397 7.731-24.013 26.701-45.824 55.706-18.227 24.192-36.48 46.72-40.55 50.074-9.472 7.757-26.803 15.898-38.656 18.125-10.547 1.997-65.408 1.997-77.261 0z" />
<glyph unicode="&#xe932;" glyph-name="logistic-spareparts" d="M458.163 786.944c-20.224-4.915-37.555-17.869-46.336-34.611-6.118-11.699-7.168-15.565-9.062-34.074-3.328-31.974-23.014-51.405-53.939-53.146-13.286-0.742-14.438-0.486-29.312 6.195-20.966 9.446-28.621 11.136-45.645 10.086-17.614-0.845-33.393-8.073-45.209-19.403l0.025 0.023c-10.88-10.163-50.253-73.549-55.040-88.576-6.298-19.738-1.51-43.059 12.442-60.646 2.867-3.635 10.573-10.163 17.101-14.49 23.501-15.642 31.411-28.339 31.309-50.304-0.102-21.658-7.757-34.509-29.107-48.87-22.554-15.155-32.947-31.616-34.278-54.298-1.075-17.946 2.79-27.648 26.701-66.637 27.238-44.442 35.354-52.89 58.010-60.544 19.712-6.63 42.291-4.045 64.179 7.373 9.37 4.915 11.597 5.35 26.445 5.35 14.387 0 17.229-0.512 25.114-4.685 18.893-9.933 28.851-25.242 31.206-47.949 1.894-18.483 2.944-22.4 9.011-33.946 8.653-16.538 25.395-29.466 44.698-34.483 14.669-3.814 96.384-3.814 111.053 0 19.302 5.018 36.045 17.946 44.698 34.483 6.093 11.571 7.117 15.462 9.037 34.125 2.432 23.398 11.904 37.581 32.384 48.41 6.554 3.456 10.112 4.070 23.91 4.045 14.822 0 17.075-0.435 26.445-5.35 21.888-11.418 44.467-14.003 64.179-7.373 22.656 7.654 30.771 16.102 58.010 60.544 23.91 38.989 27.776 48.691 26.701 66.637-1.331 22.554-11.981 39.296-34.56 54.502-19.046 12.8-26.906 24.627-29.158 44.006-2.432 20.531 7.424 38.63 28.877 53.043 7.757 5.222 16.614 12.621 19.686 16.435 14.157 17.613 18.97 40.704 12.621 60.621-4.787 15.027-44.16 78.413-55.040 88.576-11.791 11.306-27.57 18.534-45.024 19.373l-0.16 0.006c-16.947 1.050-24.678-0.64-45.184-9.882-12.544-5.632-16.896-6.758-26.086-6.758-32.205 0-54.17 20.352-57.6 53.325-1.92 18.688-2.944 22.554-9.088 34.253-9.062 17.306-27.571 30.669-48.64 35.098-12.518 2.637-94.080 2.253-105.37-0.486zM544.282 571.878c14.336-3.942 35.763-14.95 47.642-24.499 29.056-23.373 48.077-62.694 48.077-99.379 0-24.627-10.624-56.32-25.395-75.853-36.25-47.846-96.563-64.614-151.706-42.189-36.352 14.797-65.587 49.229-75.648 89.037-1.331 5.299-2.355 17.894-2.355 29.005 0 27.136 5.299 45.952 19.277 68.275 18.483 29.517 51.533 51.661 86.63 58.035 11.392 2.074 42.138 0.666 53.478-2.432z" />
<glyph unicode="&#xe933;" glyph-name="logistic-technique" d="M222.95 825.984c-16.384-3.328-27.085-7.040-42.906-14.925-17.766-8.858-25.958-14.592-40.525-28.339-28.954-27.315-46.925-61.594-52.429-100.096-1.382-9.728-1.792-67.558-1.408-203.059 0.538-189.107 0.563-189.466 4.301-202.65 9.037-31.898 21.12-53.658 42.086-75.827 21.094-22.323 20.301-22.144 25.779-5.76 11.674 35.072 37.146 64.742 71.040 82.739 23.091 12.262 40.781 16.717 67.226 16.973 27.674 0.256 43.059-2.995 66.56-14.157 48.384-22.963 79.821-67.917 84.198-120.397l1.126-13.722h128l0.486 255.155c0.512 264.781 0.23 277.018-6.605 302.080-12.442 45.491-46.413 86.349-89.37 107.469-33.331 16.384-29.926 16-145.152 16.461-80.358 0.333-103.066-0.077-112.41-1.946zM640 440.755l0.026-217.19 4.685 6.938c20.096 29.747 55.091 53.683 90.010 61.645 19.277 4.378 51.507 3.968 69.965-0.896 18.688-4.941 45.389-18.714 59.264-30.566 22.63-19.354 37.325-41.779 46.592-71.040l5.35-16.87 7.014 10.496c3.842 5.78 7.504 12.437 10.607 19.396l0.35 0.879 3.942 9.779v132.275c0 148.557 0.589 141.235-12.851 162.022-6.938 10.752-128.486 126.182-143.642 136.448-5.703 3.659-12.263 6.953-19.167 9.541l-0.725 0.238c-10.982 3.866-13.030 3.994-66.381 4.045l-55.040 0.026v-217.165zM444.851 641.536c3.61-2.918 8.013-7.782 9.805-10.829 4.019-6.861 4.275-21.197 0.512-28.467-3.84-7.424-13.773-15.642-20.352-16.87-3.072-0.563-27.93-0.794-55.219-0.512l-49.613 0.538-6.17 4.224c-16.384 11.238-18.586 35.789-4.403 48.998 9.779 9.088 10.291 9.139 66.56 8.653l52.326-0.435 6.554-5.299zM444.851 470.861c3.61-2.918 8.013-7.782 9.805-10.829 4.019-6.861 4.275-21.171 0.512-28.467-3.84-7.424-13.798-15.642-20.352-16.845-3.072-0.538-47.13-0.768-97.869-0.512l-92.288 0.512-6.195 4.25c-16.384 11.213-18.586 35.763-4.378 48.973 10.112 9.421 6.426 9.139 109.235 8.653l94.976-0.435 6.554-5.299zM278.144 229.581c-26.752-6.81-49.203-27.136-59.93-54.246-5.606-14.208-5.581-43.008 0.077-57.293 12.16-30.822 36.659-50.534 69.248-55.731 37.862-6.067 77.005 17.818 91.341 55.731 13.261 35.021-0.717 77.466-32.538 98.944-14.874 10.035-24.755 13.082-44.262 13.619-9.856 0.282-20.634-0.179-23.936-1.024zM745.805 228.915c-24.218-7.27-43.008-22.682-53.965-44.186-18.176-35.738-7.629-81.229 24.499-105.626 24.090-18.304 54.118-22.426 83.405-11.469 20.582 7.68 39.91 27.802 48.461 50.406 5.248 13.824 6.323 34.074 2.611 48.358-7.219 27.699-25.088 48.179-52.096 59.699-11.674 4.966-40.627 6.528-52.915 2.816z" />
<glyph unicode="&#xe934;" glyph-name="package" d="M493.235 862.515c-7.040-1.434-249.19-120.602-249.19-122.65 0-0.486 60.288-31.027 133.99-67.866l133.965-66.995 133.965 66.995c73.702 36.838 133.99 67.379 133.99 67.866s-54.349 27.93-120.755 60.954c-81.357 40.499-123.699 60.646-129.792 61.85-5.307 0.959-11.415 1.508-17.651 1.508-6.547 0-12.953-0.605-19.164-1.761l0.643 0.099zM128.768 639.795c-32.41-48.102-41.574-62.874-39.782-64.051 1.28-0.845 78.106-39.526 170.726-85.939l168.397-84.403 41.088 63.078c22.605 34.688 41.088 63.488 41.088 63.974 0 0.819-337.024 169.83-338.662 169.83-0.41 0-19.686-28.109-42.854-62.49zM682.675 617.6c-97.254-48.23-169.728-85.146-169.626-86.374 0.205-2.227 81.741-123.469 83.942-124.826 1.229-0.742 337.715 164.966 340.378 167.629 1.050 1.024-79.027 122.138-83.814 126.746-0.589 0.563-77.491-36.864-170.88-83.174zM170.675 349.107c0-75.597 0.614-115.533 1.869-121.6 3.763-16.826 12.093-31.318 23.611-42.556l0.017-0.017c11.315-11.341 11.366-11.366 148.019-79.693 81.946-40.986 140.8-69.427 146.944-71.014 6.257-1.608 13.44-2.531 20.838-2.531 7.436 0 14.654 0.932 21.544 2.687l-0.602-0.13c6.195 1.613 64.563 29.824 146.97 71.040 136.499 68.275 136.73 68.403 147.968 79.667 12.262 12.288 20.326 26.829 23.603 42.547 1.254 6.067 1.869 46.003 1.869 121.6v112.563l-115.61-57.805c-63.616-31.77-118.707-58.778-122.47-60.006-10.445-3.405-29.082-2.637-40.525 1.69-14.669 5.555-25.549 16.691-44.902 45.952-9.318 14.131-17.357 25.702-17.818 25.702s-8.499-11.571-17.818-25.702c-19.354-29.261-30.234-40.397-44.902-45.952-11.443-4.326-30.080-5.094-40.525-1.69-3.763 1.229-58.88 28.237-122.47 60.006l-115.61 57.805v-112.563z" />
<glyph unicode="&#xe935;" glyph-name="price" d="M340.454 925.286c-7.091-3.2-15.642-13.363-17.792-21.146-0.973-3.533-1.792-21.094-1.792-39.014l-0.026-32.614-18.33-1.075c-33.595-1.86-64.277-12.916-89.98-30.667l0.585 0.382c-28.774-19.507-52.915-51.84-64.461-86.323-8.832-26.394-8.704-22.426-8.704-277.914 0-260.557-0.307-252.134 10.189-280.909 20.352-55.782 63.846-94.157 124.058-109.491l15.078-3.84h233.805c258.688 0 241.715-0.691 274.125 11.034 27.674 10.035 56.806 31.77 76.083 56.806 16.461 21.376 28.954 51.379 32.896 78.976 1.382 9.805 1.766 81.408 1.382 256.794l-0.538 243.2-4.71 16.23c-12.544 43.187-40.602 80.077-77.21 101.53-26.035 15.258-49.536 22.374-79.718 24.192l-18.355 1.075v34.406c0 33.203-0.154 34.662-4.25 42.829-12.339 24.576-45.926 23.552-57.421-1.792-2.662-5.888-3.123-11.674-3.149-41.395l-0.026-34.56h-276.48v34.662c0 33.485-0.154 34.918-4.25 43.085-5.658 11.29-13.747 16.614-26.214 17.331-5.709 0.333-11.75-0.41-14.797-1.792zM351.437 634.086c7.552-3.84 16.666-13.722 19.968-21.632 3.405-8.115 2.944-25.651-0.896-33.894-11.878-25.6-44.8-32.691-65.818-14.182-10.163 8.934-14.566 18.56-14.566 31.846 0 12.39 2.56 19.405 10.291 28.211 7.872 8.725 19.219 14.186 31.841 14.186 6.992 0 13.593-1.675 19.422-4.647l-0.243 0.112zM748.698 627.098c5.811-2.202 13.696-9.421 16.64-15.258 6.042-11.904 4.301-25.062-4.634-35.251-9.933-11.341-2.842-10.829-151.27-10.829-91.059 0-136.32 0.589-139.571 1.818-11.622 4.378-19.789 16.666-19.789 29.747 0 12.8 8.064 25.216 19.251 29.67 6.093 2.432 272.973 2.509 279.373 0.102zM349.491 465.843c14.438-6.042 25.933-23.398 25.933-39.168 0-16-11.443-33.075-26.419-39.424-8.474-3.584-23.603-3.738-31.693-0.307-9.531 4.589-17.216 11.731-22.346 20.543l-0.131 0.244c-5.069 9.754-5.069 28.134 0 37.862 4.096 7.885 13.773 17.050 21.606 20.454 7.194 3.149 25.318 3.021 33.050-0.205zM749.747 455.936c9.728-4.070 19.942-19.046 19.942-29.261 0-10.24-10.214-25.216-19.942-29.286-4.48-1.869-30.976-2.304-140.314-2.304-91.059 0-136.32 0.589-139.571 1.818-11.622 4.403-19.789 16.691-19.789 29.773 0 12.774 8.064 25.19 19.251 29.645 2.714 1.075 54.195 1.741 139.571 1.818 109.978 0.077 136.346-0.333 140.851-2.202zM351.437 292.762c7.552-3.866 16.666-13.722 19.968-21.658 3.405-8.115 2.944-25.651-0.896-33.869-11.878-25.6-44.8-32.691-65.818-14.208-10.163 8.96-14.566 18.56-14.566 31.872 0 12.39 2.56 19.405 10.291 28.186 7.869 8.739 19.221 14.209 31.851 14.209 6.988 0 13.586-1.675 19.412-4.645l-0.243 0.112zM749.747 285.261c9.728-4.070 19.942-19.046 19.942-29.261s-10.214-25.19-19.942-29.261c-4.48-1.869-30.976-2.304-140.314-2.304-91.059 0-136.32 0.589-139.571 1.818-11.622 4.378-19.789 16.666-19.789 29.747 0 12.8 8.064 25.216 19.251 29.67 2.714 1.050 54.195 1.715 139.571 1.792 109.978 0.102 136.346-0.333 140.851-2.202z" />
<glyph unicode="&#xe936;" glyph-name="project_sales" d="M445.44 888.909c-33.869-6.118-62.848-20.787-86.81-43.93-36.070-34.867-49.715-71.68-49.715-134.426v-23.322l-42.24-0.691c-40.090-0.666-43.034-0.947-57.523-5.376-16.307-4.966-37.658-15.053-50.278-23.731-13.798-9.472-34.278-30.566-44.339-45.594-16.026-23.962-24.218-46.566-27.802-76.826-3.635-30.618-0.973-34.483 37.325-54.144 75.187-38.579 166.042-67.789 250.547-80.614 15.442-2.167 24.884-3.719 34.284-5.393l-6.533 0.964c3.661-0.768 3.84-1.562 3.84-17.664 0-20.634 3.891-34.637 13.773-49.434 11.93-17.843 28.621-29.491 50.432-35.174 13.824-3.584 69.376-3.584 83.2 0 21.811 5.683 38.502 17.331 50.432 35.174 9.882 14.797 13.773 28.8 13.773 49.434 0 16.128 0.179 16.896 3.84 17.613 2.125 0.435 14.592 2.432 27.75 4.48 90.715 14.291 172.307 41.148 247.369 79.055l-4.758-2.178c46.874 23.142 49.050 25.933 45.261 57.882-3.584 30.259-11.776 52.864-27.802 76.826-10.061 15.027-30.541 36.122-44.339 45.594-12.621 8.678-33.971 18.765-50.278 23.731-14.49 4.429-17.434 4.71-57.523 5.376l-42.24 0.691v23.322c0 62.746-13.722 99.789-49.715 134.349-20.506 19.686-39.629 30.874-67.328 39.424l-15.206 4.71-66.56 0.307c-36.608 0.179-68.48-0.026-70.835-0.435zM572.698 825.062c26.368-4.762 53.376-24.73 66.048-48.87 9.728-18.458 11.494-27.853 11.494-60.595v-28.672h-276.787l0.64 32.87c0.589 31.514 0.819 33.331 5.53 44.8 5.603 14.346 14.016 26.51 24.639 36.318l0.065 0.060c10.547 10.189 31.718 21.35 45.389 23.91 12.058 2.278 110.566 2.406 122.982 0.179zM557.747 425.472c1.408-1.434 2.048-10.368 2.048-29.21 0-26.291-0.154-27.443-4.608-35.635-2.875-5.478-7.099-9.907-12.241-12.948l-0.15-0.082c-7.373-4.326-8.883-4.557-30.797-4.557-19.174 0-24.013 0.538-28.826 3.149-7.342 4.037-13.076 10.224-16.442 17.707l-0.096 0.238c-3.174 7.578-3.482 58.24-0.384 61.338 2.918 2.918 88.576 2.918 91.494 0zM92.57 419.968l-6.374-5.837v-131.968c0-130.074 0.051-132.173 3.686-145.843 13.926-52.070 46.618-92.083 93.261-114.202 8.96-4.25 22.682-9.421 30.49-11.494l14.208-3.789h568.32l14.080 3.738c61.056 16.307 107.136 63.078 123.878 125.747 3.635 13.67 3.686 15.77 3.686 145.843v131.968l-6.374 5.837c-8.525 7.808-16.051 7.782-36.301-0.179-44.774-17.613-115.379-37.965-171.11-49.357-16.205-3.328-32.717-7.654-36.685-9.677-19.814-9.984-32.102-23.296-50.867-55.066-19.635-33.203-47.309-54.477-82.662-63.539-16.998-4.352-66.611-4.352-83.61 0-35.123 8.986-62.95 30.31-82.534 63.181-14.669 24.627-24.064 36.787-34.79 44.954-14.362 10.982-21.658 13.747-52.89 20.147-55.731 11.392-126.336 31.744-171.11 49.357-20.25 7.962-27.776 7.987-36.301 0.179z" />
<glyph unicode="&#xe937;" glyph-name="promotion" d="M802.586 905.421c-22.144-5.248-31.232-33.613-16.41-51.226 8.218-9.779 12.467-10.957 42.88-11.93l27.75-0.87-20.941-16.41c-143.565-112.512-245.043-179.789-348.621-231.091-49.485-24.525-83.251-38.502-133.965-55.501-74.957-25.114-148.582-41.574-247.475-55.398-26.317-3.661-32.64-5.12-38.042-8.678-17.152-11.315-19.302-33.818-4.608-48.512 10.394-10.394 16.128-11.213 47.642-6.81 225.715 31.59 368.614 83.814 552.243 201.856 56.883 36.557 139.622 96.461 209.536 151.706 17.613 13.926 32.41 25.318 32.845 25.318 0.461 0 0.819-12.109 0.819-26.88 0.026-14.797 0.819-29.747 1.792-33.229 4.608-16.666 22.17-26.394 39.27-21.786 9.37 2.509 19.379 12.262 21.888 21.35 3.021 10.906 2.458 98.048-0.717 111.59-3.248 14.751-10.888 27.366-21.459 36.752l-0.070 0.061c-11.955 11.059-24.269 17.254-38.989 19.584-12.672 1.997-97.024 2.099-105.37 0.102zM835.43 616.653c-30.771-5.862-58.931-34.176-65.536-65.92-2.662-12.723-2.662-448.742 0-461.466 8.013-38.502 44.186-67.942 83.43-67.942 39.27 0 75.418 29.44 83.456 67.942 2.662 12.723 2.662 448.742 0 461.466-6.784 32.538-34.893 60.186-67.123 66.074-5.028 1.014-10.808 1.595-16.724 1.595-6.195 0-12.241-0.637-18.077-1.848l0.574 0.1zM494.106 446.106c-31.155-6.349-58.957-34.33-65.562-66.022-2.611-12.621-2.611-278.221 0-290.816 8.038-38.502 44.186-67.942 83.456-67.942s75.418 29.44 83.456 67.942c1.28 6.144 1.869 52.429 1.869 145.408 0 92.954-0.589 139.238-1.869 145.408-5.965 28.518-27.93 53.325-55.859 63.027-11.469 3.968-33.562 5.427-45.491 2.995zM152.755 275.328c-30.771-5.862-58.931-34.176-65.536-65.92-2.509-12.058-2.509-108.083 0-120.141 8.038-38.502 44.186-67.942 83.456-67.942 39.245 0 75.418 29.44 83.43 67.942 2.534 12.058 2.534 108.083 0 120.141-6.784 32.538-34.867 60.186-67.123 66.074-5.028 1.008-10.807 1.585-16.722 1.585-6.195 0-12.243-0.633-18.081-1.838l0.576 0.099z" />
<glyph unicode="&#xe938;" glyph-name="service1" d="M236.365 873.549c-70.195-9.037-126.336-57.728-145.434-126.157l-4.736-16.947v-564.89l4.659-16.691c16.947-60.621 60.083-104.064 121.114-121.958l15.872-4.659 277.76-0.486c275.917-0.486 277.862-0.461 295.245 3.072 64.973 13.235 114.227 59.315 132.224 123.776l4.736 16.947v564.89l-4.531 16.435c-11.213 40.525-35.379 74.931-68.48 97.382-14.49 9.856-39.066 21.12-55.91 25.6l-14.438 3.866-276.48 0.23c-152.064 0.128-278.784-0.051-281.6-0.41zM604.672 730.803c3.558-1.997 7.936-5.99 9.728-8.883s11.341-25.754 21.248-50.79c18.765-47.462 20.326-53.888 15.693-64.896-5.274-12.544-21.427-21.811-33.766-19.354-2.944 0.589-11.597 4.096-19.2 7.782-29.901 14.515-53.862 19.763-88.934 19.507-17.536-0.128-28.109-1.126-39.757-3.763-64.998-14.643-116.122-61.158-133.504-121.446-5.811-20.147-6.528-50.688-1.741-74.419 4.582-22.707 3.354-30.208-6.554-40.141-14.925-14.899-40.294-11.418-49.587 6.835-9.83 19.251-13.926 72.422-8.115 105.165 8.013 44.979 29.722 85.914 63.411 119.475 34.176 34.074 75.955 56.576 125.696 67.712 15.565 3.482 22.093 3.942 53.555 3.866 21.094-0.026 38.989-0.87 43.494-2.022 4.198-1.075 7.936-1.638 8.346-1.229 0.384 0.384-0.998 4.762-3.072 9.702-5.709 13.568-6.426 24.755-2.099 33.203 4.147 8.141 12.314 15.488 18.739 16.922 2.591 0.537 4.696 1.094 6.758 1.745l-0.486-0.132c3.354 1.229 13.773-1.28 20.147-4.838zM726.195 529.715c14.643-4.070 20.506-11.853 25.472-33.818 25.779-114.202-43.264-228.736-160.435-266.24-22.978-7.81-49.447-12.318-76.968-12.318-0.499 0-0.997 0.001-1.495 0.004h0.076c-19.891-0.026-48.947 2.611-52.429 4.762-2.227 1.382-1.51-1.766 2.944-12.723 8.806-21.658 3.098-39.654-14.95-47.181-12.774-5.35-28.877-1.613-36.89 8.576-1.92 2.458-11.981 25.856-22.349 52.019-19.635 49.587-21.171 55.859-16.512 66.995 4.966 11.904 22.144 21.606 33.741 19.072 2.79-0.614 12.314-4.506 21.171-8.653 59.008-27.571 125.594-25.37 180.378 5.965 37.606 21.53 68.429 60.416 79.923 100.864 5.734 20.173 6.451 51.021 1.715 74.112-3.789 18.611-3.635 24.755 0.973 33.741 4.147 8.115 16.23 15.488 27.085 16.538 0.947 0.102 4.787-0.666 8.55-1.715z" />
<glyph unicode="&#xe939;" glyph-name="shortlist" d="M279.040 873.549c-70.272-9.088-126.336-57.728-145.459-126.157l-4.736-16.947v-564.89l4.659-16.691c17.075-61.056 60.979-104.934 122.035-122.010l16.666-4.659h479.59l16.666 4.608c64.23 17.715 110.822 67.43 124.032 132.326 3.533 17.357 3.558 19.507 3.123 294.4l-0.461 276.915-4.557 16.435c-11.187 40.525-35.379 74.931-68.454 97.382-14.541 9.882-39.091 21.12-55.936 25.6l-14.413 3.866-233.83 0.23c-128.589 0.128-236.109-0.051-238.925-0.41zM741.222 688.845c10.291-6.374 15.181-15.155 15.283-27.494 0.077-8.832-0.666-11.469-4.89-17.485-2.739-3.917-7.68-8.678-10.957-10.598-5.914-3.482-7.27-3.507-228.659-3.507s-222.746 0.026-228.659 3.507c-4.298 2.909-7.929 6.425-10.871 10.474l-0.086 0.124c-12.186 17.331-2.304 43.29 18.381 48.282 2.944 0.717 104.038 1.178 224.64 1.024l219.315-0.256 6.502-4.070zM741.222 475.52c10.342-6.426 15.411-15.514 15.411-27.674 0-8.525-0.845-11.366-5.018-17.306-2.739-3.917-7.68-8.704-10.957-10.624-5.914-3.482-7.27-3.482-228.659-3.482s-222.746 0-228.659 3.482c-4.298 2.918-7.928 6.442-10.87 10.499l-0.086 0.125c-12.186 17.331-2.304 43.29 18.381 48.282 2.944 0.717 104.038 1.178 224.64 1.024l219.315-0.282 6.502-4.045zM528.563 261.658c10.24-6.784 14.72-15.078 14.72-27.29 0-8.371-0.845-11.238-4.992-17.178-2.765-3.917-7.68-8.678-10.957-10.598-5.837-3.43-8.115-3.507-122.010-3.507-113.869 0-116.147 0.077-121.984 3.507-4.298 2.909-7.929 6.425-10.871 10.474l-0.086 0.124c-12.186 17.357-2.33 43.264 18.381 48.307 2.944 0.717 56.090 1.178 118.118 1.024l112.768-0.282 6.912-4.582z" />
<glyph unicode="&#xe93a;" glyph-name="summarizing" d="M498.611 885.709c-3.686-3.098-6.451-8.294-9.779-18.33-2.56-7.731-5.862-15.872-7.322-18.125-4.173-6.426-12.083-8.73-30.080-8.73-16 0-16.384-0.102-22.323-5.53-4.454-4.070-6.323-7.424-6.989-12.544-1.357-9.933 2.432-15.949 16.41-26.112 6.554-4.762 13.21-10.624 14.771-13.005 3.994-6.093 3.533-14.797-1.638-31.104-3.942-12.442-4.198-14.771-2.355-20.403 2.662-8.064 11.366-14.182 20.173-14.182 5.094 0 9.498 2.099 20.659 9.805 19.533 13.466 24.192 13.466 43.725 0 11.162-7.706 15.565-9.805 20.659-9.805 8.806 0 17.51 6.118 20.173 14.182 1.843 5.632 1.587 7.962-2.355 20.403-5.171 16.307-5.632 25.011-1.638 31.104 1.562 2.381 8.218 8.243 14.771 13.005 13.978 10.163 17.766 16.179 16.41 26.112-0.666 5.12-2.534 8.474-6.989 12.544-5.939 5.427-6.323 5.53-22.323 5.53-17.997 0-25.907 2.304-30.080 8.73-1.459 2.253-4.762 10.394-7.322 18.125-5.837 17.613-10.982 22.656-23.168 22.656-6.349 0-9.446-0.998-13.389-4.326zM455.68 617.498c-33.869-5.683-62.848-33.382-69.786-66.765-2.662-12.723-2.662-448.742 0-461.466 6.656-32 34.048-59.366 66.022-66.048 12.083-2.509 108.083-2.509 120.166 0 31.974 6.682 59.366 34.048 66.022 66.048 2.662 12.723 2.662 448.742 0 461.466-6.784 32.538-34.867 60.186-67.123 66.074-9.549 1.766-105.549 2.304-115.302 0.691zM154.445 446.285c-33.997-7.27-60.339-33.229-67.226-66.202-2.637-12.621-2.637-278.221 0-290.816 6.682-32 34.048-59.366 66.048-66.048 12.058-2.509 108.083-2.509 120.141 0 31.974 6.682 59.366 34.048 66.048 66.048 1.28 6.17 1.869 52.582 1.869 145.971 0 117.376-0.358 138.394-2.611 147.123-7.424 28.928-25.702 49.229-54.554 60.646-9.958 3.942-11.75 4.045-66.56 4.378-30.976 0.205-59.392-0.307-63.155-1.101zM754.355 361.549c-34.458-6.246-62.848-33.408-69.811-66.816-1.229-5.965-1.869-40.909-1.869-102.733s0.64-96.768 1.869-102.733c6.682-32 34.074-59.366 66.048-66.048 12.058-2.509 108.083-2.509 120.141 0 32 6.682 59.366 34.048 66.048 66.048 2.586 12.442 2.586 193.024 0 205.466-5.939 28.442-26.112 51.405-55.296 62.925-9.958 3.942-11.674 4.070-66.56 4.352-30.976 0.179-58.24-0.026-60.57-0.461z" />
</font>
</defs>
</svg>
